[ Сегодня идет свободное скачивание без начисления Download ]


Статистика раздачи
Нет
 
   
 
Top  
 
 
Близость / Closer«Those who love at first sight are traitors at every glance.»
Год выпуска: 2004
Страна: США, Великобритания
Производство: Columbia Pictures
Жанр: драма, мелодрама
Режиссер: Майк Николс
В ролях: Натали Портман, Джуд Лоу, Джулия Робертс, Клайв Оуэн, Ник Хоббс, Колин Стинтон, Бенхэм Стив, Элизабет Бауэр, Жаклинн Тиффани Браун, Майкл Хейли, Стив Морфью, Абдул Попула, Питер Рник, Брэт Йонт
Перевод: Профессиональный (полное дублирование)
Субтитры: Русские, Английские, Датские
Описание: Человек страдает, когда не получает того, чего хочет. Но еще больше он страдает, когда не может понять, чего он хочет. .. Молодой писатель Дэн влюблен в стриптизершу Элис, хотя не прочь закрутить роман с модным фотографом Анной. В то же время мрачный мачо Ларри становится бойфрендом Анны, однако встречается и с Элис. И никто из них не способен разобраться в своих чувствах и окончательно определиться, с кем же он желает остаться. Отношения внутри любовного четырехугольника постепенно накаляются, бросая героев в пучину страстей и неумолимо приближая их к неожиданной, парадоксальной развязке…

Релиз от:
Качество: BDRip 1080p
Продолжительность: 01:43:50
Формат: MKV
Видео кодек: AVC [email protected]
Аудио кодек: AC3
Видео: 1920 x 1040 (16:9), 23.976 fps, ~9437 kbps, 0.193 bit / pixel
Аудио: 48 kHz, АС3, 3/2 (L,C,R,l,r) + LFE ch, ~448 kbps avg
Главы: Нет

Media Info

General
Unique ID                      : 223479389700629657182266869069403902792 (0xA820909A85079FB6AD9F8E8AC213D348)
Complete name                  : D:\фильмы\Closer.2004.BDRip.1080p.mkv
Format                         : Matroska
Format version                 : Version 1
File size                      : 7.17 GiB
Duration                       : 1h 43mn
Overall bit rate               : 9 889 Kbps
Encoded date                   : UTC 2008-03-06 22:09:08
Writing application            : mkvmerge v2.1.0 ('Another Place To Fall') built on Aug 19 2007 13:40:07
Writing library                : libebml v0.7.7 + libmatroska v0.8.1
Video
ID                             : 1
Format                         : AVC
Format/Info                    : Advanced Video Codec
Format profile                 : [email protected]
Format settings, CABAC         : Yes
Format settings, ReFrames      : 8 frames
Codec ID                       : V_MPEG4/ISO/AVC
Duration                       : 1h 43mn
Bit rate                       : 9 437 Kbps
Width                          : 1 920 pixels
Height                         : 1 040 pixels
Display aspect ratio           : 16:9
Frame rate                     : 23.976 fps
Color space                    : YUV
Chroma subsampling             : 4:2:0
Bit depth                      : 8 bits
Scan type                      : Progressive
Bits/(Pixel*Frame)             : 0.197
Stream size                    : 6.71 GiB (93%)
Writing library                : x264 core 56 svn-667C
Encoding settings              : cabac=1 / ref=5 / deblock=1:-3:-3 / analyse=0x3:0x133 / me=umh / subme=7 / brdo=1 / mixed_ref=1 / me_range=16 / chroma_me=1 / trellis=1 / 8x8dct=1 / cqm=2 / deadzone=21,11 / chroma_qp_offset=0 / threads=3 / nr=0 / decimate=1 / mbaff=0 / bframes=3 / b_pyramid=1 / b_adapt=1 / b_bias=0 / direct=3 / wpredb=1 / bime=1 / keyint=250 / keyint_min=25 / scenecut=40(pre) / rc=2pass / bitrate=9437 / ratetol=1.0 / rceq='blurCplx^(1-qComp)' / qcomp=0.60 / qpmin=10 / qpmax=51 / qpstep=4 / cplxblur=20.0 / qblur=0.5 / ip_ratio=1.40 / pb_ratio=1.30 / aq=1:0.3:15.0
Language                       : English
Default                        : Yes
Forced                         : No
Audio
ID                             : 2
Format                         : AC-3
Format/Info                    : Audio Coding 3
Mode extension                 : CM (complete main)
Codec ID                       : A_AC3
Duration                       : 1h 43mn
Bit rate mode                  : Constant
Bit rate                       : 448 Kbps
Channel(s)                     : 6 channels
Channel positions              : Front: L C R, Side: L R, LFE
Sampling rate                  : 48.0 KHz
Bit depth                      : 16 bits
Compression mode               : Lossy
Stream size                    : 333 MiB (5%)
Title                          : AC3 5.1 448 kbps
Language                       : Russian
Default                        : Yes
Forced                         : No
Text #1
ID                             : 3
Format                         : UTF-8
Codec ID                       : S_TEXT/UTF8
Codec ID/Info                  : UTF-8 Plain Text
Language                       : Russian
Default                        : No
Forced                         : No
Text #2
ID                             : 4
Format                         : UTF-8
Codec ID                       : S_TEXT/UTF8
Codec ID/Info                  : UTF-8 Plain Text
Language                       : English
Default                        : No
Forced                         : No
Text #3
ID                             : 5
Format                         : UTF-8
Codec ID                       : S_TEXT/UTF8
Codec ID/Info                  : UTF-8 Plain Text
Language                       : Dutch
Default                        : No
Forced                         : No

Скриншоты

[Цитировать]



Показать сообщения:    

Текущее время: 06-Дек 08:50

Часовой пояс: UTC + 3


Вы не можете начинать темы
Вы не можете отвечать на сообщения
Вы не можете редактировать свои сообщения
Вы не можете удалять свои сообщения
Вы не можете голосовать в опросах
Вы не можете прикреплять файлы к сообщениям
Вы не можете скачивать файлы

!ВНИМАНИЕ!
Сайт не предоставляет электронные версии произведений, а занимается лишь коллекционированием и каталогизацией ссылок, присылаемых и публикуемых на форуме нашими читателями. Если вы являетесь правообладателем какого-либо представленного материала и не желаете, чтобы ссылка на него находилась в нашем каталоге, свяжитесь с нами, и мы незамедлительно удалим ее. Файлы для обмена на трекере предоставлены пользователями сайта, и администрация не несет ответственности за их содержание. Просьба не заливать файлы, защищенные авторскими правами, а также файлы нелегального содержания!