[ Сегодня идет свободное скачивание без начисления Download ]


Статистика раздачи
Нет
 
   
 
Top  
 
 
-Я очень возбужден / Los amantes pasajeros (2013) BDRip- Год выпуска: 2013
Производство: Испания
Жанр: Комедия
Перевод: Дублированный (Лицензия)
Субтитры: Отсутствуют
Режиссер: Педро Альмодовар
Актеры: Хавьер Камара, Сесилия Рот, Лола Дуэньяс, Карлос Аресес, Рауль Аревало, Хосе Луис Торрихо, Антонио де ла Торре, Уго Силва, Гильермо Толедо, Хосе Мария Язпик, Антонио Бандерас, Пенелопа Крус
Описание фильма:
Рейс лайнера, совершающего перелет в Мексику, начался как обычно: пассажиры пристегнули ремни, а командир корабля, включив автопилот, спокойно уснул. Но прямо над океаном оказалось, что самолет неисправен, исчезает интернет, и всё разом выходит из строя. Всех охватывает страх, ужас, отчаяние. Беспомощные пассажиры и экипаж, оказавшись пред лицом гибели, наконец-то должны стать сами собой. Так что несчастным на борту падающего самолета не остается ничего, как только петь и танцевать вслед за веселыми стюардами.
Дата мировой премьеры: 8 марта 2013
Дата российской премьеры: 23 мая 2013, «Парадиз»
Дата выхода DVD/Blu-Ray релиза: 23 июля 2013, «Парадиз / Активижен»

Продолжительность: 01:30:19
Качество видео: BDRip [720p]
Видеокодек: MPEG-4 AVC/H.264
Видео: 1280x690, ~5283 kbps
Аудио: DTS, 6 ch, 1510 kbps (Дублированный, Русский)

MediaInfo:

Общее
Уникальный идентификатор : 248022392509051982174182076426453960316 (0xBA9760111DC914C98591A629AB7AC67C)
Полное имя : Los.amantes.pasajeros.2013.BDRip.720p.mkv
Формат : Matroska
Версия формата : Version 2
Размер файла : 4,37 Гбайт
Продолжительность : 1 ч. 30 м.
Общий поток : 6930 Кбит/сек
Название фильма : HDCLUB present "Los amantes pasajeros - 2013"
Дата кодирования : UTC 2013-07-20 05:25:35
Программа кодирования : mkvmerge v5.8.0 ('No Sleep / Pillow') built on Sep 2 2012 15:37:04
Библиотека кодирования : libebml v1.2.3 + libmatroska v1.3.0
Видео
Идентификатор : 1
Формат : AVC
Формат/Информация : Advanced Video Codec
Профиль формата : [email protected]
Параметр CABAC формата : Да
Параметр ReFrames формата : 9 кадров
Идентификатор кодека : V_MPEG4/ISO/AVC
Продолжительность : 1 ч. 30 м.
Битрейт : 5283 Кбит/сек
Ширина : 1280 пикселей
Высота : 690 пикселей
Соотношение сторон : 1,85:1
Режим частоты кадров : Постоянный
Частота кадров : 23,976 кадра/сек
Цветовое пространство : YUV
Субдискретизация насыщенности : 4:2:0
Битовая глубина : 8 бит
Тип развёртки : Прогрессивная
Бит/(Пиксели*Кадры) : 0.249
Размер потока : 3,33 Гбайт (76%)
Заголовок : Los.amantes.pasajeros.2013.720p.BluRay.Rus.HDCLUB
Библиотека кодирования : x264 core 136 r2348+704+51 d1baef6 tMod [[email protected] X86_64]
Настройки программы : cabac=1 / ref=9 / deblock=1:-3:-3 / analyse=0x3:0x133 / me=umh / subme=11 / psy=1 / fade_compensate=0.00 / psy_rd=1.00:0.00 / mixed_ref=1 / me_range=48 / chroma_me=1 / trellis=2 / 8x8dct=1 / cqm=0 / deadzone=21,11 / fast_pskip=0 / chroma_qp_offset=-2 / threads=12 / lookahead_threads=2 / sliced_threads=0 / nr=0 / decimate=1 / interlaced=0 / bluray_compat=0 / constrained_intra=0 / fgo=0 / bframes=7 / b_pyramid=2 / b_adapt=2 / b_bias=0 / direct=1 / weightb=1 / open_gop=0 / weightp=2 / keyint=240 / keyint_min=23 / scenecut=40 / intra_refresh=0 / rc_lookahead=60 / rc=crf / mbtree=0 / crf=17.2000 / qcomp=0.60 / qpmin=0:0:0 / qpmax=69:69:69 / qpstep=4 / vbv_maxrate=50000 / vbv_bufsize=62500 / crf_max=0.0 / nal_hrd=none / ip_ratio=1.40 / pb_ratio=1.30 / aq=1:0.80 / aq-sensitivity=10.00 / aq-factor=1.00:1.00:1.00 / aq2=0 / aq3=0
Язык : Spanish
Default : Да
Forced : Нет
Аудио
Идентификатор : 2
Формат : DTS
Формат/Информация : Digital Theater Systems
Режим : 16
Параметр Endianness формата : Big
Идентификатор кодека : A_DTS
Продолжительность : 1 ч. 30 м.
Вид битрейта : Постоянный
Битрейт : 1509 Кбит/сек
Каналы : 6 каналов
Расположение каналов : Front: L C R, Side: L R, LFE
Частота : 48,0 КГц
Битовая глубина : 16 бит
Метод сжатия : С потерями
Размер потока : 975 Мбайт (22%)
Заголовок : DTS 5.1 @ 1509 kbps - Dubbed [BD RUS]
Язык : Russian
Default : Да
Forced : Нет
Меню
00:00:00.000 : ru:Chapter 1
00:06:35.520 : ru:Chapter 2
00:10:15.781 : ru:Chapter 3
00:15:57.247 : ru:Chapter 4
00:21:09.101 : ru:Chapter 5
00:27:09.169 : ru:Chapter 6
00:32:07.258 : ru:Chapter 7
00:40:24.672 : ru:Chapter 8
00:48:28.530 : ru:Chapter 9
00:52:06.873 : ru:Chapter 10
00:58:32.759 : ru:Chapter 11
01:03:58.584 : ru:Chapter 12
01:08:45.746 : ru:Chapter 13
01:14:06.442 : ru:Chapter 14
01:21:01.982 : ru:Chapter 15
01:25:20.323 : ru:Chapter 16
Скриншоты:


Время раздачи: Обычно с 19:00 до 00:00

[Цитировать]

Топик был перенесен из форума Новинки кинопроката (HD Video) в форум Зарубежное кино (HD Video)
Bootch



Показать сообщения:    

Текущее время: 06-Дек 08:47

Часовой пояс: UTC + 3


Вы не можете начинать темы
Вы не можете отвечать на сообщения
Вы не можете редактировать свои сообщения
Вы не можете удалять свои сообщения
Вы не можете голосовать в опросах
Вы не можете прикреплять файлы к сообщениям
Вы не можете скачивать файлы

!ВНИМАНИЕ!
Сайт не предоставляет электронные версии произведений, а занимается лишь коллекционированием и каталогизацией ссылок, присылаемых и публикуемых на форуме нашими читателями. Если вы являетесь правообладателем какого-либо представленного материала и не желаете, чтобы ссылка на него находилась в нашем каталоге, свяжитесь с нами, и мы незамедлительно удалим ее. Файлы для обмена на трекере предоставлены пользователями сайта, и администрация не несет ответственности за их содержание. Просьба не заливать файлы, защищенные авторскими правами, а также файлы нелегального содержания!