[ Сегодня идет свободное скачивание без начисления Download ]


Статистика раздачи
Нет
 
   
 
Top  
 
 
-Улики / Evidence (2013) WEB-DLRip«Собери ужас по фрагментам»- Год выпуска: 2013
Производство: США
Жанр: Триллер, Ужасы
Перевод: Любительский одноголосый (lord666)
Субтитры: Вшитые отключаемые
Язык субтитров: Aнглийский
Дата мировой премьеры: 2 мая 2013
Дата российской премьеры: 4 июля 2013, «Каравелла DDC»
Дата выхода DVD релиза: 7 августа 2013, «Кармен Видео»
Режиссер: Олатунде Осунсанми
Продюсер: Дэвид Ланкастер, Мишель Литвак, Марк Э. Платт
Актеры: Рада Митчелл, Стивен Мойер, Торри ДеВито, Нолан Фанк, Дейл Дикки, Гарри Дж. Ленникс, Кэйтлин Стэйси, Амл Амин, Джон Хеймс Ньютон, Светлана Меткина
Описание фильма:
В автобусе, направлявшемся в Лас-Вегас, совершено жестокое убийство. На месте преступления — ни одного уцелевшего. Только несколько трупов и хаотичный набор мобильных телефонов, карманных видеокамер и других устройств, оставшихся от потерпевших. Детектив, которому поручено расследование, с помощью сохранившихся записей пытается восстановить цепь загадочных событий, приведших к трагедии.

Продолжительность: 01:33:56
Качество видео: WEB-DLRip
Видеокодек: MPEG-4 AVC/H.264
Битрейт видео: ~4765 Kbit/s
Размер кадра: 1916 x 796
Аудио #1: AC3, 48,0 КHz, 2.0, 192 Kbit/s - Русский
Aудио #2: AC3, 48,0 КHz, 5.1, 384 Kbit/s - Aнглийский

MediaInfo

Общее
Уникальный идентификатор : 175604760662910562752215684225438079741 (0x841C3F2752962D6F9E2558EFB7E45AFD)
Полное имя : D:\Торренты\Улики.2013.WEB-DL.1080p.mkv
Формат : Matroska
Размер файла : 3,58 Гбайт
Продолжительность : 1 ч. 33 м.
Общий поток : 5450 Кбит/сек
Дата кодирования : UTC 2013-07-21 04:23:10
Программа кодирования : mkvmerge v3.2.0 ('Beginnings') built on Feb 12 2010 16:46:17
Библиотека кодирования : libebml v0.7.9 + libmatroska v0.8.1
Видео
Идентификатор : 1
Формат : AVC
Формат/Информация : Advanced Video Codec
Профиль формата : High@L4.0
Параметр CABAC формата : Да
Параметр ReFrames формата : 5 кадров
Параметры GOP формата : M=2, N=25
Идентификатор кодека : V_MPEG4/ISO/AVC
Продолжительность : 1 ч. 33 м.
Битрейт : 4765 Кбит/сек
Ширина : 1916 пикс.
Высота : 796 пикс.
Соотношение сторон : 2,40:1
Частота кадров : 23,976 кадр/сек
Цветовое пространство : YUV
Подвыборка цветности : 4:2:0
Битовая глубина : 8 бит
Тип развёртки : Прогрессивная
Бит/(Пиксели*Кадры) : 0.130
Размер потока : 3,13 Гбайт (87%)
Язык : English
Основные цвета : BT.709-5, BT.1361, IEC 61966-2-4, SMPTE RP177
Характеристики трансфера : BT.709-5, BT.1361
Коэффициенты матрицы : BT.709-5, BT.1361, IEC 61966-2-4 709, SMPTE RP177
Аудио #1
Идентификатор : 2
Формат : AC-3
Формат/Информация : Audio Coding 3
Расширение режима : CM (complete main)
Идентификатор кодека : A_AC3
Продолжительность : 1 ч. 33 м.
Вид битрейта : Постоянный
Битрейт : 192 Кбит/сек
Каналы : 2 канала
Расположение каналов : Front: L R
Частота : 48,0 КГц
Битовая глубина : 16 бит
Метод сжатия : С потерями
Размер потока : 129 Мбайт (4%)
Заголовок : lord666
Язык : Russian
Аудио #2
Идентификатор : 3
Формат : AC-3
Формат/Информация : Audio Coding 3
Расширение режима : CM (complete main)
Идентификатор кодека : A_AC3
Продолжительность : 1 ч. 33 м.
Вид битрейта : Постоянный
Битрейт : 384 Кбит/сек
Каналы : 6 каналов
Расположение каналов : Front: L C R, Side: L R, LFE
Частота : 48,0 КГц
Битовая глубина : 16 бит
Метод сжатия : С потерями
Размер потока : 258 Мбайт (7%)
Язык : English
Текст
Идентификатор : 4
Формат : UTF-8
Идентификатор кодека : S_TEXT/UTF8
Идентификатор кодека/Информация : UTF-8 Plain Text
Язык : English
Меню
00:00:00.000 : en:Evidence
00:07:52.000 : en:This Could Be It
00:14:25.000 : en:Viva Las Vegas
00:23:23.000 : en:Help
00:31:06.000 : en:First Vicitim
00:40:31.000 : en:Night Vision
00:47:59.000 : en:I Know Why
00:54:39.000 : en:A Motive
01:01:29.000 : en:Fuel House
01:07:56.000 : en:Just A Game
01:19:26.000 : en:Masterpiece
01:28:40.000 : en:End Credits
Скриншоты:
Время раздачи: 24/7 по возможности

[Цитировать]

Топик был перенесен из форума Новинки кинопроката (HD Video) в форум Зарубежное кино (HD Video)
Bootch



Показать сообщения:    

Текущее время: 28-Июн 18:35

Часовой пояс: UTC + 6


Вы не можете начинать темы
Вы не можете отвечать на сообщения
Вы не можете редактировать свои сообщения
Вы не можете удалять свои сообщения
Вы не можете голосовать в опросах
Вы не можете прикреплять файлы к сообщениям
Вы не можете скачивать файлы

!ВНИМАНИЕ!
Сайт не предоставляет электронные версии произведений, а занимается лишь коллекционированием и каталогизацией ссылок, присылаемых и публикуемых на форуме нашими читателями. Если вы являетесь правообладателем какого-либо представленного материала и не желаете, чтобы ссылка на него находилась в нашем каталоге, свяжитесь с нами, и мы незамедлительно удалим ее. Файлы для обмена на трекере предоставлены пользователями сайта, и администрация не несет ответственности за их содержание. Просьба не заливать файлы, защищенные авторскими правами, а также файлы нелегального содержания!