[ Сегодня идет свободное скачивание без начисления Download ]


Статистика раздачи
Нет
 
   
 
Top  
 
 
-Обитель зла 4: Жизнь после смерти 3D / Resident Evil: Afterlife (2010) BDRip«Испытайте новое измерение зла»- Год выпуска: 2010
Жанр: Ужасы, Фантастика, Боевик, Приключения
Описание фильма:
Элис продолжает свой путь в мире, поражённом вирусной инфекцией, превращающей людей в нежить. Героиня ищет оставшихся в живых, чтобы вывести их в безопасное место. Её смертельная битва с корпорацией Амбрелла выходит на новый уровень…
Режиссер: Пол У. С. Андерсон
Актеры: Милла Йовович, Эли Лартер, Вентворт Миллер, Борис Коджо, Ким Коутс, Шон Робертс, Серхио Перис-Менчета, Спенсер Лок, Сиенна Гиллори, Кейси Барнфилд
Роли дублировали: Ирина Киреева, Сергей Быстрицкий, Владислав Копп, Никита Прозоровский, Юрий Деркач
Продолжительность: 01:36:52
Качество видео: BDRip
Перевод: Дублированный-
Возраст R+ - зрителям, достигшим 18 лет-Дата мировой премьеры: 2 сентября 2010
Дата российской премьеры: 10 сентября 2010, «WDSSPR»
Дата выхода DVD релиза: 14 октября 2010, «Columbia/Sony»
Дата выхода BLU-RAY релиза: 27 января 2011, «Columbia/Sony»
Видеокодек: MPEG-4 AVC/H.264
Битрейт видео: ~13,3 Мбит/сек
Размер кадра: 1920x1600
Аудио №1: AC3 5.1 448 kbps - Русский
Аудио №2: AC3 2.0 192 kbps - Украинский
Аудио №3: AC3 5.1 640 kbps - Английский-

Media info:

Общее
Уникальный идентификатор : 236140215483887886261393915319416454356 (0xB1A6F38254CE550BB3236215D31AFCD4)
Полное имя : G:\Full 3Drip\RESIDENT_EVIL_3D.mkv
Формат : Matroska
Версия формата : Version 2
Размер файла : 10,0 Гбайт
Продолжительность : 1 ч. 36 м.
Общий поток : 14,8 Мбит/сек
Название фильма : RESIDENT_EVIL_3D_FULL_O/U
Дата кодирования : UTC 2013-07-15 05:00:09
Программа кодирования : mkvmerge v5.7.0 ('The Whirlwind') built on Aug 7 2012 14:11:40
Библиотека кодирования : libebml v1.2.3 + libmatroska v1.3.0
Видео
Идентификатор : 1
Формат : AVC
Формат/Информация : Advanced Video Codec
Профиль формата : High@L5.1
Параметр CABAC формата : Да
Параметр ReFrames формата : 6 кадров
Идентификатор кодека : V_MPEG4/ISO/AVC
Продолжительность : 1 ч. 36 м.
Битрейт : 13,3 Мбит/сек
Ширина : 1920 пикселей
Высота : 1600 пикселей
Соотношение сторон : 1,200
Соотношение сторон в оригинале : 16:9
Режим частоты кадров : Постоянный
Частота кадров : 23,976 кадра/сек
Цветовое пространство : YUV
Субдискретизация насыщенности : 4:2:0
Битовая глубина : 8 бит
Тип развёртки : Прогрессивная
Бит/(Пиксели*Кадры) : 0.180
Размер потока : 8,98 Гбайт (89%)
Заголовок : rip by I/N
Библиотека кодирования : x264 core 128 r2216M 198a7ea
Настройки программы : cabac=1 / ref=6 / deblock=1:-1:-1 / analyse=0x3:0x133 / me=esa / subme=10 / psy=1 / psy_rd=1.00:0.15 / mixed_ref=1 / me_range=32 / chroma_me=1 / trellis=2 / 8x8dct=1 / cqm=0 / deadzone=21,11 / fast_pskip=1 / chroma_qp_offset=-3 / threads=4 / lookahead_threads=1 / sliced_threads=0 / nr=0 / decimate=1 / interlaced=0 / bluray_compat=0 / constrained_intra=0 / bframes=8 / b_pyramid=2 / b_adapt=2 / b_bias=0 / direct=3 / weightb=1 / open_gop=0 / weightp=2 / keyint=230 / keyint_min=23 / scenecut=40 / intra_refresh=0 / rc_lookahead=60 / rc=crf / mbtree=1 / crf=18.0 / qcomp=0.60 / qpmin=10 / qpmax=61 / qpstep=4 / ip_ratio=1.40 / aq=1:0.60
Default : Да
Forced : Да
Аудио #1
Идентификатор : 2
Формат : AC-3
Формат/Информация : Audio Coding 3
Расширение режима : CM (complete main)
Параметр Endianness формата : Big
Идентификатор кодека : A_AC3
Продолжительность : 1 ч. 36 м.
Вид битрейта : Постоянный
Битрейт : 448 Кбит/сек
Каналы : 6 каналов
Расположение каналов : Front: L C R, Side: L R, LFE
Частота : 48,0 КГц
Битовая глубина : 16 бит
Метод сжатия : С потерями
Размер потока : 310 Мбайт (3%)
Заголовок : Дубляж
Язык : Russian
Default : Да
Forced : Да
Аудио #2
Идентификатор : 3
Формат : AC-3
Формат/Информация : Audio Coding 3
Профиль формата : Dolby Digital
Расширение режима : CM (complete main)
Параметр Endianness формата : Big
Идентификатор кодека : A_AC3
Продолжительность : 1 ч. 36 м.
Вид битрейта : Постоянный
Битрейт : 192 Кбит/сек
Каналы : 2 канала
Расположение каналов : Front: L R
Частота : 48,0 КГц
Битовая глубина : 16 бит
Метод сжатия : С потерями
Размер потока : 133 Мбайт (1%)
Заголовок : Дубляж
Язык : Ukrainian
Default : Нет
Forced : Нет
Аудио #3
Идентификатор : 4
Формат : AC-3
Формат/Информация : Audio Coding 3
Расширение режима : CM (complete main)
Параметр Endianness формата : Big
Идентификатор кодека : A_AC3
Продолжительность : 1 ч. 36 м.
Вид битрейта : Постоянный
Битрейт : 640 Кбит/сек
Каналы : 6 каналов
Расположение каналов : Front: L C R, Side: L R, LFE
Частота : 48,0 КГц
Битовая глубина : 16 бит
Метод сжатия : С потерями
Размер потока : 443 Мбайт (4%)
Заголовок : Original
Язык : English
Default : Нет
Forced : Нет
Меню
00:00:00.000 : en:(01)00:00:00:000
00:07:51.304 : en:(02)00:07:51:304
00:14:04.552 : en:(03)00:14:04:552
00:19:21.368 : en:(04)00:19:21:368
00:25:23.939 : en:(05)00:25:23:939
00:30:07.222 : en:(06)00:30:07:222
00:35:08.189 : en:(07)00:35:08:189
00:41:51.091 : en:(08)00:41:51:091
00:47:07.241 : en:(09)00:47:07:241
00:53:41.468 : en:(10)00:53:41:468
01:00:53.941 : en:(11)01:00:53:941
01:07:58.532 : en:(12)01:07:58:532
01:14:07.985 : en:(13)01:14:07:985
01:17:54.711 : en:(14)01:17:54:711
01:23:39.013 : en:(15)01:23:39:013
01:27:24.489 : en:(16)01:27:24:489
На встроенных ТВ-плейерах показывать НЕ будет!!!Скриншоты:

Особенности релиза:

Данный рип сделан в формате 16:9 - специально для корректного воспроизведения 3Dсофт-плеерами сразу в полный экран.
Воспроизведение проверенно: Arcsoft TMT6 и Cyberlink PowerDVD11,12
Всем приятного просмотра!
Время раздачи: 24/7 - круглосуточно до 10 скачавших

[Цитировать]



Показать сообщения:    

Текущее время: 11-Дек 11:05

Часовой пояс: UTC + 3


Вы не можете начинать темы
Вы не можете отвечать на сообщения
Вы не можете редактировать свои сообщения
Вы не можете удалять свои сообщения
Вы не можете голосовать в опросах
Вы не можете прикреплять файлы к сообщениям
Вы не можете скачивать файлы

!ВНИМАНИЕ!
Сайт не предоставляет электронные версии произведений, а занимается лишь коллекционированием и каталогизацией ссылок, присылаемых и публикуемых на форуме нашими читателями. Если вы являетесь правообладателем какого-либо представленного материала и не желаете, чтобы ссылка на него находилась в нашем каталоге, свяжитесь с нами, и мы незамедлительно удалим ее. Файлы для обмена на трекере предоставлены пользователями сайта, и администрация не несет ответственности за их содержание. Просьба не заливать файлы, защищенные авторскими правами, а также файлы нелегального содержания!