[ Сегодня идет свободное скачивание без начисления Download ]


Статистика раздачи
Нет
 
   
 
Top  
 
 
-Обитель зла: Возмездие / Resident Evil: Retribution (2012) BDRip«Evil goes global»- Год выпуска: 2012
Жанр: Ужасы, Фантастика, Боевик, Триллер
Описание фильма:
Смертельный T-вирус, созданный в лабораториях корпорации «Амбрелла», продолжает захватывать Землю, превращая мировое население в легионы пожирающих плоть зомби. Последняя надежда человечества Элис внедряется в самое сердце самой тайной исследовательской базы корпорации и узнает еще больше о собственном таинственном прошлом. Не имея путей к отступлению, Элис продолжает искать виновных в глобальной катастрофе. Вызов, который она принимала в Токио, Нью-Йорке, Вашингтоне и даже в Москве, приводит ее в итоге к взрывающему сознание откровению, которое заставит ее переосмыслить все, что она полагала правдой. С помощью новых союзников и старых друзей, Элис будет сражаться за выживание и убегать из враждебного мира. Отсчет времени начат…
Режиссер: Пол У. С. Андерсон
Актеры: Милла Йовович, Сиенна Гиллори, Йохан Урб, Ли Бинбин, Ариана Энджинир, Мишель Родригес, Борис Коджо, Кевин Дюран, Одед Фер, Колин Сэлмон
Роли дублировали: Ирина Киреева, Елена Соловьева, Алексей Мясников, Валентина Абрамова, Анна Денисова
Продолжительность: 01:35:37
Качество видео: BDRip
Перевод: Дублированный-
Возраст R+ - зрителям, достигшим 18 лет-Дата мировой премьеры: 3 сентября 2012
Дата российской премьеры: 13 сентября 2012, «WDSSPR»
Дата выхода DVD релиза: 17 декабря 2012, «Columbia/Sony»
Дата выхода BLU-RAY релиза: 17 декабря 2012, «Columbia/Sony»
Видеокодек: MPEG-4 AVC/H.264
Битрейт видео: ~16,1 Мбит/сек
Размер кадра: 1920x1608
Аудио №1: AC3 5.1 640 kbps - Русский
Аудио №2: AC3 5.1 640 kbps - Украинский
Аудио №3: AC3 5.1 640 kbps - Английский-

Media info:

Общее
Уникальный идентификатор : 195882718546629616247197440337489504400 (0x935DA3AAB7B166A0BA5FFCCDF3E12890)
Полное имя : G:\Full 3Drip\RESEV5_3D.mkv
Формат : Matroska
Версия формата : Version 2
Размер файла : 12,3 Гбайт
Продолжительность : 1 ч. 35 м.
Общий поток : 18,4 Мбит/сек
Название фильма : RESEV5_3D_FULL_O/U
Дата кодирования : UTC 2013-07-17 06:29:16
Программа кодирования : mkvmerge v5.7.0 ('The Whirlwind') built on Aug 7 2012 14:11:40
Библиотека кодирования : libebml v1.2.3 + libmatroska v1.3.0
Видео
Идентификатор : 1
Формат : AVC
Формат/Информация : Advanced Video Codec
Профиль формата : High@L5.1
Параметр CABAC формата : Да
Параметр ReFrames формата : 6 кадров
Идентификатор кодека : V_MPEG4/ISO/AVC
Продолжительность : 1 ч. 35 м.
Битрейт : 16,1 Мбит/сек
Ширина : 1920 пикселей
Высота : 1608 пикселей
Соотношение сторон : 1,194
Соотношение сторон в оригинале : 16:9
Режим частоты кадров : Постоянный
Частота кадров : 23,976 кадра/сек
Цветовое пространство : YUV
Субдискретизация насыщенности : 4:2:0
Битовая глубина : 8 бит
Тип развёртки : Прогрессивная
Бит/(Пиксели*Кадры) : 0.217
Размер потока : 10,8 Гбайт (88%)
Заголовок : rip by I/N
Библиотека кодирования : x264 core 128 r2216M 198a7ea
Настройки программы : cabac=1 / ref=6 / deblock=1:-1:-1 / analyse=0x3:0x133 / me=esa / subme=10 / psy=1 / psy_rd=1.00:0.15 / mixed_ref=1 / me_range=32 / chroma_me=1 / trellis=2 / 8x8dct=1 / cqm=0 / deadzone=21,11 / fast_pskip=1 / chroma_qp_offset=-3 / threads=4 / lookahead_threads=1 / sliced_threads=0 / nr=0 / decimate=1 / interlaced=0 / bluray_compat=0 / constrained_intra=0 / bframes=8 / b_pyramid=2 / b_adapt=2 / b_bias=0 / direct=3 / weightb=1 / open_gop=0 / weightp=2 / keyint=230 / keyint_min=23 / scenecut=40 / intra_refresh=0 / rc_lookahead=60 / rc=crf / mbtree=1 / crf=18.0 / qcomp=0.60 / qpmin=10 / qpmax=61 / qpstep=4 / ip_ratio=1.40 / aq=1:0.60
Default : Да
Forced : Да
Аудио #1
Идентификатор : 2
Формат : AC-3
Формат/Информация : Audio Coding 3
Расширение режима : CM (complete main)
Параметр Endianness формата : Big
Идентификатор кодека : A_AC3
Продолжительность : 1 ч. 35 м.
Вид битрейта : Постоянный
Битрейт : 640 Кбит/сек
Каналы : 6 каналов
Расположение каналов : Front: L C R, Side: L R, LFE
Частота : 48,0 КГц
Битовая глубина : 16 бит
Метод сжатия : С потерями
Размер потока : 438 Мбайт (3%)
Заголовок : Дубляж
Язык : Russian
Default : Да
Forced : Да
Аудио #2
Идентификатор : 3
Формат : AC-3
Формат/Информация : Audio Coding 3
Расширение режима : CM (complete main)
Параметр Endianness формата : Big
Идентификатор кодека : A_AC3
Продолжительность : 1 ч. 35 м.
Вид битрейта : Постоянный
Битрейт : 640 Кбит/сек
Каналы : 6 каналов
Расположение каналов : Front: L C R, Side: L R, LFE
Частота : 48,0 КГц
Битовая глубина : 16 бит
Метод сжатия : С потерями
Размер потока : 438 Мбайт (3%)
Заголовок : Дубляж
Язык : Ukrainian
Default : Нет
Forced : Нет
Аудио #3
Идентификатор : 4
Формат : AC-3
Формат/Информация : Audio Coding 3
Расширение режима : CM (complete main)
Параметр Endianness формата : Big
Идентификатор кодека : A_AC3
Продолжительность : 1 ч. 35 м.
Вид битрейта : Постоянный
Битрейт : 640 Кбит/сек
Каналы : 6 каналов
Расположение каналов : Front: L C R, Side: L R, LFE
Частота : 48,0 КГц
Битовая глубина : 16 бит
Метод сжатия : С потерями
Размер потока : 438 Мбайт (3%)
Заголовок : Original
Язык : English
Default : Нет
Forced : Нет
Меню
00:00:00.000 : en:(01)00:00:00:000
00:07:43.045 : en:(02)00:07:43:045
00:14:32.538 : en:(03)00:14:32:538
00:21:38.839 : en:(04)00:21:38:839
00:25:39.329 : en:(05)00:25:39:329
00:29:31.186 : en:(06)00:29:31:186
00:34:16.846 : en:(07)00:34:16:846
00:39:14.769 : en:(08)00:39:14:769
00:45:29.435 : en:(09)00:45:29:435
00:50:27.441 : en:(10)00:50:27:441
00:54:42.070 : en:(11)00:54:42:070
01:00:14.861 : en:(12)01:00:14:861
01:05:38.476 : en:(13)01:05:38:476
01:11:22.903 : en:(14)01:11:22:903
01:16:15.571 : en:(15)01:16:15:571
01:21:29.384 : en:(16)01:21:29:384
На встроенных ТВ-плейерах показывать НЕ будет!!!Скриншоты:

Особенности релиза:

Данный рип сделан в формате 16:9 - специально для корректного воспроизведения 3Dсофт-плеерами сразу в полный экран.
Воспроизведение проверенно: Arcsoft TMT6 и Cyberlink PowerDVD11,12
Всем приятного просмотра!
Время раздачи: 24/7 - круглосуточно до 10 скачавших

[Цитировать]



Показать сообщения:    

Текущее время: 10-Дек 19:34

Часовой пояс: UTC + 3


Вы не можете начинать темы
Вы не можете отвечать на сообщения
Вы не можете редактировать свои сообщения
Вы не можете удалять свои сообщения
Вы не можете голосовать в опросах
Вы не можете прикреплять файлы к сообщениям
Вы не можете скачивать файлы

!ВНИМАНИЕ!
Сайт не предоставляет электронные версии произведений, а занимается лишь коллекционированием и каталогизацией ссылок, присылаемых и публикуемых на форуме нашими читателями. Если вы являетесь правообладателем какого-либо представленного материала и не желаете, чтобы ссылка на него находилась в нашем каталоге, свяжитесь с нами, и мы незамедлительно удалим ее. Файлы для обмена на трекере предоставлены пользователями сайта, и администрация не несет ответственности за их содержание. Просьба не заливать файлы, защищенные авторскими правами, а также файлы нелегального содержания!