[ Сегодня идет свободное скачивание без начисления Download ]


Статистика раздачи
Нет
 
   
 
Top  
 
 
-Астрал на улице Арлетт / 388 Arletta Avenue (2011) BDRip- Год выпуска: 2011
Производство: Канада / Copper Heart Entertainment
Жанр: Триллер
Перевод: Многоголосый закадровый, профессиональный
Субтитры: Вшитые отключаемые
Язык субтитров: Русские
Дата мировой премьеры: 11 сентября 2011
Дата российской премьеры: 20 июня 2013, «Top Film Distribution»
Дата выхода DVD релиза: 17 июля 2014, «Lizard Cinema Trade»
Режиссер: Рэндолл Коул
Продюсер: Стивен Хобан, Марк Смит, Винченцо Натали
Актеры: Ник Стал, Миа Киршнер, Девон Сава, Аарон Абрамс, Шарлотта Салливан, Криста Бриджес, Грэхэм Эбби, Джерри Ди, Кайл Лабайн, Дэниэл Левек...
Описание фильма:
Неизвестный ведет наблюдение за молодой парой 24 часа в сутки при помощи размещенных в их доме скрытых камер. Вскоре герои начинают подозревать неладное и узнают о слежке. С этого момента кошмар ситуации только нарастает…

Релиз:
Продолжительность: 01:26:22
Качество видео: BDRip
Видеокодек: MPEG-4 AVC/H.264
Битрейт видео: ~~ 1963 kbps
Размер кадра: 960x518
Аудиокодек: AC3 5.1
Битрейт аудио: 448 kbps
Сэмпл: Скачать

MediaInfo:

Формат : Matroska
Версия формата : Version 4 / Version 2
Размер файла : 1,46 Гбайт
Продолжительность : 1 ч. 26 м.
Общий поток : 2412 Кбит/сек
Дата кодирования : UTC 2013-07-21 16:46:53
Программа кодирования : mkvmerge v6.1.0 ('Old Devil') built on Mar 2 2013 14:32:37
Библиотека кодирования : libebml v1.3.0 + libmatroska v1.4.0
Видео
Идентификатор : 1
Формат : AVC
Формат/Информация : Advanced Video Codec
Профиль формата : [email protected]
Параметр CABAC формата : Да
Параметр ReFrames формата : 11 кадров
Идентификатор кодека : V_MPEG4/ISO/AVC
Продолжительность : 1 ч. 26 м.
Битрейт : 1963 Кбит/сек
Ширина : 960 пикселей
Высота : 518 пикселей
Соотношение сторон : 1,85:1
Режим частоты кадров : Постоянный
Частота кадров : 23,976 кадра/сек
Цветовое пространство : YUV
Субдискретизация насыщенности : 4:2:0
Битовая глубина : 8 бит
Тип развёртки : Прогрессивная
Бит/(Пиксели*Кадры) : 0.165
Размер потока : 1,16 Гбайт (79%)
Библиотека кодирования : x264 core 130 r2273 b3065e6
Настройки программы : cabac=1 / ref=11 / deblock=1:-2:-1 / analyse=0x3:0x113 / me=umh / subme=9 / psy=1 / psy_rd=1.00:0.10 / mixed_ref=1 / me_range=32 / chroma_me=1 / trellis=2 / 8x8dct=1 / cqm=0 / deadzone=21,11 / fast_pskip=1 / chroma_qp_offset=-3 / threads=9 / lookahead_threads=2 / sliced_threads=0 / nr=0 / decimate=1 / interlaced=0 / bluray_compat=0 / constrained_intra=0 / bframes=10 / b_pyramid=2 / b_adapt=2 / b_bias=0 / direct=3 / weightb=1 / open_gop=0 / weightp=2 / keyint=240 / keyint_min=23 / scenecut=40 / intra_refresh=0 / rc_lookahead=80 / rc=2pass / mbtree=1 / bitrate=1963 / ratetol=1.0 / qcomp=0.60 / qpmin=0 / qpmax=69 / qpstep=4 / cplxblur=20.0 / qblur=0.5 / ip_ratio=1.40 / aq=2:0.90
Язык : English
Default : Да
Forced : Нет
Аудио
Идентификатор : 2
Формат : AC-3
Формат/Информация : Audio Coding 3
Расширение режима : CM (complete main)
Параметр Endianness формата : Big
Идентификатор кодека : A_AC3
Продолжительность : 1 ч. 26 м.
Вид битрейта : Постоянный
Битрейт : 448 Кбит/сек
Каналы : 6 каналов
Расположение каналов : Front: L C R, Side: L R, LFE
Частота : 48,0 КГц
Битовая глубина : 16 бит
Метод сжатия : С потерями
Размер потока : 277 Мбайт (19%)
Язык : Russian
Default : Да
Forced : Нет
Текст
Идентификатор : 3
Формат : UTF-8
Идентификатор кодека : S_TEXT/UTF8
Идентификатор кодека/Информация : UTF-8 Plain Text
Язык : Russian
Default : Нет
Forced : Нет
Меню
00:00:00.000 : :Chapter 01
00:11:29.438 : :Chapter 02
00:22:55.624 : :Chapter 03
00:33:35.138 : :Chapter 04
00:44:20.991 : :Chapter 05
00:54:07.577 : :Chapter 06
01:04:31.117 : :Chapter 07
01:13:55.806 : :Chapter 08
Скриншоты:

Время раздачи: с 10:00 до 18:30 (до 3-х скачавших)

[Цитировать]



Показать сообщения:    

Текущее время: 05-Дек 01:27

Часовой пояс: UTC + 3


Вы не можете начинать темы
Вы не можете отвечать на сообщения
Вы не можете редактировать свои сообщения
Вы не можете удалять свои сообщения
Вы не можете голосовать в опросах
Вы не можете прикреплять файлы к сообщениям
Вы не можете скачивать файлы

!ВНИМАНИЕ!
Сайт не предоставляет электронные версии произведений, а занимается лишь коллекционированием и каталогизацией ссылок, присылаемых и публикуемых на форуме нашими читателями. Если вы являетесь правообладателем какого-либо представленного материала и не желаете, чтобы ссылка на него находилась в нашем каталоге, свяжитесь с нами, и мы незамедлительно удалим ее. Файлы для обмена на трекере предоставлены пользователями сайта, и администрация не несет ответственности за их содержание. Просьба не заливать файлы, защищенные авторскими правами, а также файлы нелегального содержания!