[ Сегодня идет свободное скачивание без начисления Download ]


Статистика раздачи
Нет
 
   
 
Top  
 
 
-Ангелы и Демоны / Angels & Demons (2009) BDRemux- Год выпуска: 2009
Производство: США, Италия / Columbia Pictures, Imagine Entertainment
Жанр: Триллер, Детектив
Перевод: Дублированный (Русский, Украинский)
Субтитры: Вшитые отключаемые
Язык субтитров: Русский (forced, full), украинский (forced), английский (full, SDH)
Режиссер: Рон Ховард
Продюсер: Джон Калли, Брайан Грейзер, Рон Ховард
Актеры: Том Хэнкс, Юэн МакГрегор, Айелет Зурер, Стеллан Скарсгард, Пьерфранческо Фавино, Николай Ли Каас, Армин Мюллер-Шталь, Туре Линдхардт, Дэвид Паскуэзи, Козимо Фуско
Описание фильма:
Весь мир замер в ожидании свершения древнейшей церемонии — выбора главы католической церкви Папы Римского, но в судьбоносное решение вмешивается некая могущественная сила — заклятый враг католической церкви — таинственный орден Иллюминатов! Кандидаты на священный пост подвергаются свирепой ритуальной расправе один за другим. Перед лицом смертельной угрозы Ватикан вынужден обратится за помощью к профессору — эксперту по религиозной символике Роберту Лэнгдону, который находит доказательства возрождения могущественного тайного братства, жестоко истребляемого в Средние века. Вместе со своей напарницей — талантливым ученым Витторией Ветра — Лэнгдон начинает собственное расследование, увлекающие их в лабиринты замурованных склепов, тайных подземелий и заброшенных храмов — в самое сокровенное хранилище в мире...

Дата мировой премьеры: 4 мая 2009
Дата российской премьеры: 14 мая 2009, «BVSPR Sony»
Дата выхода DVD релиза: 25 июня 2009, «Columbia/Sony»
Дата выхода Blu-Ray релиза: 1 октября 2009, «Columbia/Sony»
Рейтинг PG-13 - Детям до 13 лет просмотр не желателен
Возраст 16+ - зрителям, достигшим 16 лет
Продолжительность: 02:18:37
Качество видео: BDRemux [Mastered in 4K]
Видео: MPEG4_AVC/H.264, 1920x1080 (16:9), ~33396 kbps, 23.976 fps
Аудио 1: AC3 5.1, 640 kbps, 48 kHz [Русский - дублированный «Blu-ray CEE»]
Аудио 2: AC3 5.1, 640 kbps, 48 kHz [Украинский - дублированный «Blu-ray CEE»]
Аудио 3: DTS-HD MA 5.1, 3723 kbps, 48 kHz [Английский - оригинал]

Отчёт MediaInfo

Полное имя : D:\Ангелы.и.Демоны-Angels.&.Demons.(2009).BDRemux.[1080p].mkv
Формат : Matroska
Версия формата : Version 2
Размер файла : 37,2 Гбайт
Продолжительность : 2 ч. 18 м.
Режим общего битрейта : Переменный
Общий поток : 38,4 Мбит/сек
Название фильма : Lelya_K for NNM-Club.ru
Дата кодирования : UTC 2013-07-15 11:07:48
Программа кодирования : mkvmerge v5.7.0 ('The Whirlwind') built on Aug 7 2012 14:11:40
Библиотека кодирования : libebml v1.2.3 + libmatroska v1.3.0
Видео
Идентификатор : 1
Формат : AVC
Формат/Информация : Advanced Video Codec
Профиль формата : High@L4.1
Параметр CABAC формата : Да
Параметр ReFrames формата : 2 кадра
Идентификатор кодека : V_MPEG4/ISO/AVC
Продолжительность : 2 ч. 18 м.
Вид битрейта : Переменный
Битрейт : 34,8 Мбит/сек
Ширина : 1920 пикселей
Высота : 1080 пикселей
Соотношение сторон : 16:9
Режим частоты кадров : Постоянный
Частота кадров : 23,976 кадра/сек
Цветовое пространство : YUV
Субдискретизация насыщенности : 4:2:0
Битовая глубина : 8 бит
Тип развёртки : Прогрессивная
Бит/(Пиксели*Кадры) : 0.700
Размер потока : 33,7 Гбайт (91%)
Заголовок : Ангелы.и.Демоны-Angels.&.Demons.(2009).BDRemux.[1080p]
Язык : English
Default : Да
Forced : Нет
Аудио #1
Идентификатор : 2
Формат : AC-3
Формат/Информация : Audio Coding 3
Расширение режима : CM (complete main)
Параметр Endianness формата : Big
Идентификатор кодека : A_AC3
Продолжительность : 2 ч. 18 м.
Вид битрейта : Постоянный
Битрейт : 640 Кбит/сек
Каналы : 6 каналов
Расположение каналов : Front: L C R, Side: L R, LFE
Частота : 48,0 КГц
Битовая глубина : 16 бит
Метод сжатия : С потерями
Размер потока : 635 Мбайт (2%)
Заголовок : AC3 5.1 / 640 kbps / Dub (Blu-ray CEE)
Язык : Russian
Default : Да
Forced : Нет
Аудио #2
Идентификатор : 3
Формат : AC-3
Формат/Информация : Audio Coding 3
Расширение режима : CM (complete main)
Параметр Endianness формата : Big
Идентификатор кодека : A_AC3
Продолжительность : 2 ч. 18 м.
Вид битрейта : Постоянный
Битрейт : 640 Кбит/сек
Каналы : 6 каналов
Расположение каналов : Front: L C R, Side: L R, LFE
Частота : 48,0 КГц
Битовая глубина : 16 бит
Метод сжатия : С потерями
Размер потока : 635 Мбайт (2%)
Заголовок : AC3 5.1 / 640 kbps / Dub (Blu-ray CEE)
Язык : Ukrainian
Default : Нет
Forced : Нет
Аудио #3
Идентификатор : 4
Формат : DTS
Формат/Информация : Digital Theater Systems
Профиль формата : MA / Core
Идентификатор кодека : A_DTS
Продолжительность : 2 ч. 18 м.
Вид битрейта : Переменный
Битрейт : 1561 Кбит/сек / 1510 Кбит/сек
Каналы : 6 каналов
Расположение каналов : Front: L C R, Side: L R, LFE
Частота : 48,0 КГц
Битовая глубина : 24 бит
Метод сжатия : Без потерь / Lossy
Заголовок : DTS-HD MA 5.1 / 3723 kbps
Язык : English
Default : Нет
Forced : Нет
Текст #1
Идентификатор : 5
Формат : UTF-8
Идентификатор кодека : S_TEXT/UTF8
Идентификатор кодека/Информация : UTF-8 Plain Text
Заголовок : Forced
Язык : Russian
Default : Да
Forced : Нет
Текст #2
Идентификатор : 6
Формат : UTF-8
Идентификатор кодека : S_TEXT/UTF8
Идентификатор кодека/Информация : UTF-8 Plain Text
Заголовок : Full
Язык : Russian
Default : Нет
Forced : Нет
Текст #3
Идентификатор : 7
Формат : UTF-8
Идентификатор кодека : S_TEXT/UTF8
Идентификатор кодека/Информация : UTF-8 Plain Text
Заголовок : Forced
Язык : Ukrainian
Default : Нет
Forced : Нет
Текст #4
Идентификатор : 8
Формат : UTF-8
Идентификатор кодека : S_TEXT/UTF8
Идентификатор кодека/Информация : UTF-8 Plain Text
Язык : English
Default : Нет
Forced : Нет
Текст #5
Идентификатор : 9
Формат : UTF-8
Идентификатор кодека : S_TEXT/UTF8
Идентификатор кодека/Информация : UTF-8 Plain Text
Заголовок : SDH
Язык : English
Default : Нет
Forced : Нет
Меню
00:00:00.000 : en:Chapter 1
00:09:30.945 : en:Chapter 2
00:17:33.010 : en:Chapter 3
00:25:40.997 : en:Chapter 4
00:32:22.273 : en:Chapter 5
00:43:36.864 : en:Chapter 6
00:51:52.609 : en:Chapter 7
01:01:11.918 : en:Chapter 8
01:10:47.576 : en:Chapter 9
01:17:13.962 : en:Chapter 10
01:26:21.509 : en:Chapter 11
01:37:39.562 : en:Chapter 12
01:47:41.455 : en:Chapter 13
01:58:02.366 : en:Chapter 14
02:03:03.334 : en:Chapter 15
02:07:28.140 : en:Chapter 16
Скриншоты:


Время раздачи: 24/7 (до 10 скачавших)

[Цитировать]



Показать сообщения:    

Текущее время: 07-Дек 13:44

Часовой пояс: UTC + 3


Вы не можете начинать темы
Вы не можете отвечать на сообщения
Вы не можете редактировать свои сообщения
Вы не можете удалять свои сообщения
Вы не можете голосовать в опросах
Вы не можете прикреплять файлы к сообщениям
Вы не можете скачивать файлы

!ВНИМАНИЕ!
Сайт не предоставляет электронные версии произведений, а занимается лишь коллекционированием и каталогизацией ссылок, присылаемых и публикуемых на форуме нашими читателями. Если вы являетесь правообладателем какого-либо представленного материала и не желаете, чтобы ссылка на него находилась в нашем каталоге, свяжитесь с нами, и мы незамедлительно удалим ее. Файлы для обмена на трекере предоставлены пользователями сайта, и администрация не несет ответственности за их содержание. Просьба не заливать файлы, защищенные авторскими правами, а также файлы нелегального содержания!