[ Сегодня идет свободное скачивание без начисления Download ]


Статистика раздачи
Нет
 
   
 
Top  
 
 
-Подержанные львы / Secondhand Lions (2003) BDRip [720p]- Год выпуска: 2003
Производство: США
Жанр: Драма, Комедия, Семейный
Перевод: Профессиональный многоголосый
Режиссер: Тим МакКэнлис
Актеры: Майкл Кейн, Роберт Дювалл, Хэйли Джоэл Осмент, Никки Кэтт, Кира Седжвик, Майкл О’Нил, Дирдри О’Коннелл, Кристиан Кэйн, Эрик Бальфур, Эммануэль Вожье
Описание фильма:
Последнее, что хотел юный герой картины, по имени Уолтер, так это «застрять» на все летние каникулы на ферме у своих родственников. К тому же, владельцы фермы, два пожилых дяди мальчика, Гарт и Хаб, оказались стариками «с приветом»...-
Дата мировой премьеры: 5 сентября 2003-Продолжительность: 01:49:09
Качество видео: BDRip [720p] (EbP)
Контейнер: MKV
Видеокодек: MPEG-4 AVC/H.264
Аудиокодек: AC-3
Размер кадра: 1280x688p
Битрейт видео: ~6892 kbps
Аудио 1: AC-3 5.1, 448 kbps - русский многоголосый закадровый
Аудио 2: AC-3 5.1, 640 kbps - English
Аудио 3: AC-3 2.0, 192 kbps - English (Commentary)
Субтитры: Вшитые отключаемые
Язык субтитров: русский, английский
Главы: присутствуют

MediaInfo

Формат                                   : Matroska
Версия формата                           : Version 4 / Version 2
Размер файла                             : 6,36 Гбайт
Продолжительность                        : 1 ч. 49 м.
Общий поток                              : 8338 Кбит/сек
Название фильма                          : Secondhand Lions (2003) BDRip [720p] (Release for NNM-Club.ru)
Дата кодирования                         : UTC 2013-07-19 20:01:56
Программа кодирования                    : mkvmerge v6.2.0 ('Promised Land') built on May  1 2013 18:02:55
Библиотека кодирования                   : libebml v1.3.0 + libmatroska v1.4.0
Видео
Идентификатор                            : 1
Формат                                   : AVC
Формат/Информация                        : Advanced Video Codec
Профиль формата                          : [url=mailto:High@L4.1]High@L4.1[/url]
Параметр CABAC формата                   : Да
Параметр ReFrames формата                : 9 кадров
Идентификатор кодека                     : V_MPEG4/ISO/AVC
Продолжительность                        : 1 ч. 49 м.
Битрейт                                  : 6892 Кбит/сек
Ширина                                   : 1280 пикселей
Высота                                   : 688 пикселей
Соотношение сторон                       : 1,860
Частота кадров                           : 23,976 кадра/сек
Цветовое пространство                    : YUV
Субдискретизация насыщенности            : 4:2:0
Битовая глубина                          : 8 бит
Тип развёртки                            : Прогрессивная
Бит/(Пиксели*Кадры)                      : 0.326
Размер потока                            : 5,25 Гбайт (83%)
Заголовок                                : Secondhand Lions (2003) BDRip [720p] (Release for NNM-Club.ru)
Библиотека кодирования                   : x264 core 129 r2245 bc13772
Настройки программы                      : cabac=1 / ref=9 / deblock=1:-3:-3 / analyse=0x3:0x113 / me=tesa / subme=9 / psy=1 / psy_rd=1.05:0.00 / mixed_ref=1 / me_range=16 / chroma_me=1 / trellis=2 / 8x8dct=1 / cqm=0 / deadzone=21,11 / fast_pskip=0 / chroma_qp_offset=-2 / threads=12 / lookahead_threads=2 / sliced_threads=0 / nr=0 / decimate=0 / interlaced=0 / bluray_compat=0 / constrained_intra=0 / bframes=8 / b_pyramid=2 / b_adapt=2 / b_bias=0 / direct=3 / weightb=1 / open_gop=0 / weightp=2 / keyint=250 / keyint_min=23 / scenecut=40 / intra_refresh=0 / rc=crf / mbtree=0 / crf=15.0 / qcomp=0.60 / qpmin=0 / qpmax=69 / qpstep=4 / ip_ratio=1.40 / pb_ratio=1.30 / aq=1:0.70
Язык                                     : English
Default                                  : Да
Forced                                   : Нет
Коэффициенты матрицы                     : BT.709-5, BT.1361, IEC 61966-2-4 709, SMPTE RP177
Аудио #1
Идентификатор                            : 2
Формат                                   : AC-3
Формат/Информация                        : Audio Coding 3
Расширение режима                        : CM (complete main)
Идентификатор кодека                     : A_AC3
Продолжительность                        : 1 ч. 49 м.
Вид битрейта                             : Постоянный
Битрейт                                  : 448 Кбит/сек
Каналы                                   : 6 каналов
Расположение каналов                     : Front: L C R, Side: L R, LFE
Частота                                  : 48,0 КГц
Битовая глубина                          : 16 бит
Метод сжатия                             : С потерями
Размер потока                            : 350 Мбайт (5%)
Заголовок                                : RUS.MVO.AC-3 5.1 ~448 kbps
Язык                                     : Russian
Default                                  : Да
Forced                                   : Нет
Аудио #2
Идентификатор                            : 3
Формат                                   : AC-3
Формат/Информация                        : Audio Coding 3
Расширение режима                        : CM (complete main)
Идентификатор кодека                     : A_AC3
Продолжительность                        : 1 ч. 49 м.
Вид битрейта                             : Постоянный
Битрейт                                  : 640 Кбит/сек
Каналы                                   : 6 каналов
Расположение каналов                     : Front: L C R, Side: L R, LFE
Частота                                  : 48,0 КГц
Битовая глубина                          : 16 бит
Метод сжатия                             : С потерями
Размер потока                            : 500 Мбайт (8%)
Заголовок                                : ENG.ORIG.AC-3 5.1 ~640 kbps
Язык                                     : English
Default                                  : Нет
Forced                                   : Нет
Аудио #3
Идентификатор                            : 4
Формат                                   : AC-3
Формат/Информация                        : Audio Coding 3
Профиль формата                          : Dolby Digital
Расширение режима                        : CM (complete main)
Идентификатор кодека                     : A_AC3
Продолжительность                        : 1 ч. 49 м.
Вид битрейта                             : Постоянный
Битрейт                                  : 192 Кбит/сек
Каналы                                   : 2 канала
Расположение каналов                     : Front: L R
Частота                                  : 48,0 КГц
Битовая глубина                          : 16 бит
Метод сжатия                             : С потерями
Размер потока                            : 150 Мбайт (2%)
Заголовок                                : Director's Commentary AC-3 2.0 ~192 kbps
Язык                                     : English
Default                                  : Нет
Forced                                   : Нет
Текст #1
Идентификатор                            : 5
Формат                                   : UTF-8
Идентификатор кодека                     : S_TEXT/UTF8
Идентификатор кодека/Информация          : UTF-8 Plain Text
Заголовок                                : RUS.SUB
Язык                                     : Russian
Default                                  : Да
Forced                                   : Нет
Текст #2
Идентификатор                            : 6
Формат                                   : UTF-8
Идентификатор кодека                     : S_TEXT/UTF8
Идентификатор кодека/Информация          : UTF-8 Plain Text
Заголовок                                : ENG.SUB
Язык                                     : English
Default                                  : Нет
Forced                                   : Нет
Меню
00:00:00.000                             : en:00:00:00.000
00:04:49.539                             : en:00:04:49.539
00:10:06.981                             : en:00:10:06.981
00:15:01.025                             : en:00:15:01.025
00:19:39.678                             : en:00:19:39.678
00:23:06.135                             : en:00:23:06.135
00:26:47.815                             : en:00:26:47.815
00:33:04.107                             : en:00:33:04.107
00:36:22.472                             : en:00:36:22.472
00:41:47.046                             : en:00:41:47.046
00:47:46.655                             : en:00:47:46.655
00:52:58.258                             : en:00:52:58.258
00:57:51.134                             : en:00:57:51.134
01:06:18.141                             : en:01:06:18.141
01:14:35.471                             : en:01:14:35.471
01:18:08.851                             : en:01:18:08.851
01:22:55.220                             : en:01:22:55.220
01:26:44.783                             : en:01:26:44.783
01:30:54.741                             : en:01:30:54.741
01:36:28.783                             : en:01:36:28.783
01:42:15.629                             : en:01:42:15.629
-Скриншоты:

-Время раздачи: 24/7, до нескольких сидов

[Цитировать]



Показать сообщения:    

Текущее время: 11-Дек 01:18

Часовой пояс: UTC + 3


Вы не можете начинать темы
Вы не можете отвечать на сообщения
Вы не можете редактировать свои сообщения
Вы не можете удалять свои сообщения
Вы не можете голосовать в опросах
Вы не можете прикреплять файлы к сообщениям
Вы не можете скачивать файлы

!ВНИМАНИЕ!
Сайт не предоставляет электронные версии произведений, а занимается лишь коллекционированием и каталогизацией ссылок, присылаемых и публикуемых на форуме нашими читателями. Если вы являетесь правообладателем какого-либо представленного материала и не желаете, чтобы ссылка на него находилась в нашем каталоге, свяжитесь с нами, и мы незамедлительно удалим ее. Файлы для обмена на трекере предоставлены пользователями сайта, и администрация не несет ответственности за их содержание. Просьба не заливать файлы, защищенные авторскими правами, а также файлы нелегального содержания!