[ Сегодня идет свободное скачивание без начисления Download ]


Статистика раздачи
Нет
 
   
 
 
 
• Остров забвения: Харука и волшебное зеркало / Hottarake no shima - Haruka to maho no kagami •
? Год выпуска: 2009
? Страна: Япония
? Производство: Dentsu, Fuji Television Network Inc., Production I.G.
? Жанр: Приключения
? Режиссёр: Синсуке Сато
? В ролях: Харука Аясе, Миюки Савасиро, Мицуки Танимура, Нахо Тода, Нао Омори, Иэмаса Каюми, Тамаки Матсумото
? Перевод: Профессиональный (двухголосый, закадровый)
? Субтитры: Нет
? Описание: 16-летняя Харука в раннем детстве потеряла мать и жила вместе с отцом. Чтобы одолеть боль утраты, отец с головой погрузился в работу, а девочка выросла, считая, что особо никому не нужна. Однажды, когда тоска совсем одолела, Харука решила глянуть на старое зеркало - подарок и память о матери - и не нашла его. Тут она и вспомнила местную легенду о таинственных созданиях, которые за небольшое подношение могут вернуть любимые вещи. Придя в древний храм, героиня совершила ритуал и вправду увидела таинственное создание в маске. Так из-за извечного женского любопытства японская школьница попала в иной мир, на остров Забвения, где кроются утраченные вещи и воспоминания. Перед нами старая история взросления через путешествие по Зазеркалью собственной души, рассказанная на новый лад. Пускай Харука не Алиса, и погналась не за белым кроликом, а за рыжим лисенком - какая разница? Ибо сюжет этот вечный, а исполнение выше всяких похвал!

? Качество: HDRip-AVC
? Продолжительность: 01:38:44
? Формат: MP4
? Видео кодек: AVC
? Аудио кодек: AAC
? Видео: 480x272, 23,976 fps, AVC ~512 kbps, 0.164 bit/pixel
? Аудио: 48 kHz, AAC, 2 ch, ~129 kbps

Media Info

Видео
Идентификатор                            : 1
Формат                                   : AVC
Формат/Информация                        : Advanced Video Codec
Профиль формата                          : [email protected]
Параметр CABAC формата                   : Да
Параметр ReFrames формата                : 2 кадра
Идентификатор кодека                     : avc1
Идентификатор кодека/Информация          : Advanced Video Coding
Продолжительность                        : 1 ч. 38 м.
Битрейт                                  : 512 Кбит/сек
Ширина                                   : 480 пикселей
Высота                                   : 272 пикселя
Соотношение сторон                       : 16:9
Режим частоты кадров                     : Постоянный
Частота кадров                           : 23,976 кадра/сек
Цветовое пространство                    : YUV
Субдискретизация насыщенности            : 4:2:0
Битовая глубина                          : 8 бит
Тип развёртки                            : Прогрессивная
Бит/(Пиксели*Кадры)                      : 0.164
Размер потока                            : 362 Мбайт (79%)
Библиотека кодирования                   : x264 core 65 r999kMod cc51047
Настройки программы                      : cabac=1 / ref=2 / deblock=1:-2:-1 / analyse=0x1:0x131 / me=umh / subme=7 / psy_rd=1.0:0.0 / mixed_ref=1 / me_range=16 / chroma_me=1 / trellis=2 / 8x8dct=0 / cqm=0 / deadzone=21,11 / chroma_qp_offset=-2 / threads=2 / thread_queue=2 / nr=0 / decimate=0 / mbaff=0 / bframes=3 / b_pyramid=0 / b_adapt=1 / b_bias=0 / direct=3 / wpredb=1 / keyint=250 / keyint_min=25 / scenecut=40(pre) / rc=2pass / bitrate=512 / ratetol=1.0 / qcomp=0.60 / qpmin=10 / qpmax=51 / qpstep=4 / cplxblur=20.0 / qblur=0.5 / ip_ratio=1.40 / pb_ratio=1.30 / aq=1:1.00
Дата кодирования                         : UTC 2011-09-26 19:58:24
Дата пометки                             : UTC 2011-09-26 19:59:28
Аудио
Идентификатор                            : 2
Формат                                   : AAC
Формат/Информация                        : Advanced Audio Codec
Профиль формата                          : LC
Идентификатор кодека                     : 40
Продолжительность                        : 1 ч. 38 м.
Вид битрейта                             : Переменный
Битрейт                                  : 129 Кбит/сек
Каналы                                   : 2 канала
Расположение каналов                     : Front: L R
Частота                                  : 48,0 КГц
Метод сжатия                             : С потерями
Размер потока                            : 91,1 Мбайт (20%)
Дата кодирования                         : UTC 2011-09-26 19:59:22
Дата пометки                             : UTC 2011-09-26 19:59:28

Скриншоты



[Цитировать]



Показать сообщения:    

Текущее время: 06-Дек 05:54

Часовой пояс: UTC + 3


Вы не можете начинать темы
Вы не можете отвечать на сообщения
Вы не можете редактировать свои сообщения
Вы не можете удалять свои сообщения
Вы не можете голосовать в опросах
Вы не можете прикреплять файлы к сообщениям
Вы не можете скачивать файлы

!ВНИМАНИЕ!
Сайт не предоставляет электронные версии произведений, а занимается лишь коллекционированием и каталогизацией ссылок, присылаемых и публикуемых на форуме нашими читателями. Если вы являетесь правообладателем какого-либо представленного материала и не желаете, чтобы ссылка на него находилась в нашем каталоге, свяжитесь с нами, и мы незамедлительно удалим ее. Файлы для обмена на трекере предоставлены пользователями сайта, и администрация не несет ответственности за их содержание. Просьба не заливать файлы, защищенные авторскими правами, а также файлы нелегального содержания!