[ Сегодня идет свободное скачивание без начисления Download ]


Статистика раздачи
Нет
 
   
 
Top  
 
 
-Дикость / Wilderness (2006) DVDRip-«Это история не о мести… Это история о наказании…»- Год выпуска: 2006
Производство: Великобритания
Жанр: Ужасы, триллер-Описание фильма: Заключенные тюрьмы Young Offenders’Institution по праву считаются одними из самых опасных преступников, которых нельзя перевоспитать и допустить к жизни в обществе. Будучи закоренелыми и опытными преступниками, их никто и ничего не могло испугать или устрашить... До тех пор, пока они не встретились лицом к лицу с нечеловеческой дикостью.На необитаемом острове, куда их забрасывают, в мире непроходимых лесов, смертельно опасных рек и крутых берегов, они становятся жертвами некоего охотника, который готов преподать им кровавый урок. Группа понимает, что вдали от цивилизации им не от кого ждать помощи. Безжалостный хищник и его свирепая свора собак постоянно дают о себе знать. Смогут ли герои объединиться перед лицом смертельной опасности и вместе дать отпор?-Режиссер: Майкл Дж. Бассетт
Актёры: Шон Пертуи (Jed), Алекс Рид (Louise), Тоби Кеббелл (Callum), Стивен Уайт (Steve), Люк Нил (Lewis), Бен МакКэй (Lindsay), Ленора Кричлоу (Mandy), Карли Грин (Jo), Адам Дикон (Blue), Ричи Кэмпелл (Jethro), Стефен Дон (Dave's Father), Джон Треверс (Dave)
Дублёры: Александр Рахленко (Jed), Ольга Плетнёва (Louise), Михаил Тихонов (Callum), Андрей Бархударов (Steve), Пётр Иващенко (Lewis), Олег Вирозуб (Lindsay), Любовь Германова (Mandy), Ольга Шорохова (Jo), Александр Комлев (Blue), Александр Гаврилин (Jethro), Вячеслав Баранов (Dave's Father), Александр Быков (Dave)-Продолжительность: 01:30:26
Качество видео: DVDRip
Перевод: Дублированный
Язык субтитров: Русские
Вид субтитров: Отдельным файлом- --Видеокодек: XviD
Битрейт видео: ~1 920 Кбит/с
Размер кадра: 720x400
Аудио 1: Русский: AC3 ; 5.1 ; 48 kHz ; 384 kbps
Аудио 2: Англ-ий: AC3 ; 5.1 ; 48 kHz ; 448 kbps (отдельно)
-

MediaInfo:

General
Complete name : D:\Торрент\Wilderness.2006.DVDRip\Wilderness.2006.DVDRip.avi
Format : AVI
Format/Info : Audio Video Interleave
File size : 1.46 GiB
Duration : 1h 30mn
Overall bit rate : 2 314 Kbps
Writing application : VirtualDubMod 1.5.10.3 | www.virtualdub-fr.org || (build 2550/release)
Writing library : VirtualDubMod build 2550/release
Video
ID : 0
Format : MPEG-4 Visual
Format profile : Advanced Simple@L5
Format settings, BVOP : 1
Format settings, QPel : No
Format settings, GMC : No warppoints
Format settings, Matrix : Custom
Codec ID : XVID
Codec ID/Hint : XviD
Duration : 1h 30mn
Bit rate : 1 920 Kbps
Width : 720 pixels
Height : 400 pixels
Display aspect ratio : 16:9
Frame rate : 25.000 fps
Color space : YUV
Chroma subsampling : 4:2:0
Bit depth : 8 bits
Scan type : Progressive
Compression mode : Lossy
Bits/(Pixel*Frame) : 0.267
Stream size : 1.21 GiB (83%)
Writing library : XviD 1.2.1 (UTC 2008-12-04)
Audio
ID : 1
Format : AC-3
Format/Info : Audio Coding 3
Mode extension : CM (complete main)
Format settings, Endianness : Big
Codec ID : 2000
Duration : 1h 30mn
Bit rate mode : Constant
Bit rate : 384 Kbps
Channel(s) : 6 channels
Channel positions : Front: L C R, Side: L R, LFE
Sampling rate : 48.0 KHz
Bit depth : 16 bits
Compression mode : Lossy
Stream size : 248 MiB (17%)
Alignment : Split accross interleaves
Interleave, duration : 40 ms (1.00 video frame)
Interleave, preload duration : 500 ms
-Скриншоты:
-Время раздачи: С 09:00 до 24:00

[Цитировать]



Показать сообщения:    

Текущее время: 28-Фев 17:24

Часовой пояс: UTC + 3


Вы не можете начинать темы
Вы не можете отвечать на сообщения
Вы не можете редактировать свои сообщения
Вы не можете удалять свои сообщения
Вы не можете голосовать в опросах
Вы не можете прикреплять файлы к сообщениям
Вы не можете скачивать файлы

!ВНИМАНИЕ!
Сайт не предоставляет электронные версии произведений, а занимается лишь коллекционированием и каталогизацией ссылок, присылаемых и публикуемых на форуме нашими читателями. Если вы являетесь правообладателем какого-либо представленного материала и не желаете, чтобы ссылка на него находилась в нашем каталоге, свяжитесь с нами, и мы незамедлительно удалим ее. Файлы для обмена на трекере предоставлены пользователями сайта, и администрация не несет ответственности за их содержание. Просьба не заливать файлы, защищенные авторскими правами, а также файлы нелегального содержания!