[ Сегодня идет свободное скачивание без начисления Download ]


Статистика раздачи
Нет
 
   
 
Top  
 
 
-Астрал на улице Арлетт / 388 Arletta Avenue (2011) BDRemux- Год выпуска: 2011
Жанр: Триллер
Выпущено: Канада, Copper Heart Entertainment
Перевод: Профессиональный многоголосый, любительский одноголосый [Zamez]
Язык субтитров: Русские
Вид субтитров: Вшитые, отключаемые
Режиссер: Рэндолл Коул
Актеры: Ник Стал, Миа Киршнер, Девон Сава, Аарон Абрамс, Шарлотта Салливан, Криста Бриджес, Грэхэм Эбби, Джерри Ди, Кайл Лабайн, Дэниэл Левек...
Описание фильма:
Неизвестный ведет наблюдение за молодой парой 24 часа в сутки при помощи размещенных в их доме скрытых камер. Вскоре герои начинают подозревать неладное и узнают о слежке. С этого момента кошмар ситуации только нарастает…-
Рейтинг R - Подростки до 17 лет допускаются на фильм только в сопровождении одногоиз родителей, либо законного представителя
Дата мировой премьеры: 11 сентября 2011
Дата российской премьеры: 20 июня 2013, «Top Film Distribution»
Дата выхода DVD релиза: 17 июля 2014, «Lizard Cinema Trade»-Продолжительность: 01:26:22
Качество видео: BDRemux 1080p
Видеокодек: MPEG-4 AVC/H.264
Контейнер: MKV
Размер кадра: 1920x1080p
[b]Битрейт видео:[/b] 22959 Кбит/с
[b]Аудио #1:[/b] Русский (АС3, 6 ch, 448 Кбит/с) [Многоголосый закадровый]
[b]Аудио #2:[/b] Русский (АС3, 6 ch, 448 Кбит/с) [Любительский одноголосый][b]Zamez[/b]
[b]Аудио #3:[/b] Английский (DTS, 6 ch, 1536 Кбит/с)[Оригинальный]

MediaInfo

Общее
Уникальный идентификатор : 229383226840928426119164903637173722910 (0xAC919A3F7DF54656A84C1F16A1A4DF1E)
Полное имя : D:\Astral na ulice Arlett (2011) Blu-Ray Remux [1080p].mkv
Формат : Matroska
Версия формата : Version 4 / Version 2
Размер файла : 16,7 Гбайт
Продолжительность : 1 ч. 26 м.
Режим общего битрейта : Переменный
Общий поток : 27,7 Мбит/сек
Дата кодирования : UTC 2013-07-20 17:35:12
Программа кодирования : mkvmerge v6.1.0 ('Old Devil') built on Mar 2 2013 14:32:37
Библиотека кодирования : libebml v1.3.0 + libmatroska v1.4.0
Видео
Идентификатор : 1
Формат : AVC
Формат/Информация : Advanced Video Codec
Профиль формата : High@L4.1
Параметр CABAC формата : Да
Параметр ReFrames формата : 4 кадра
Идентификатор кодека : V_MPEG4/ISO/AVC
Продолжительность : 1 ч. 26 м.
Вид битрейта : Переменный
Максимальный битрейт : 30,0 Мбит/сек
Ширина : 1920 пикселей
Высота : 1080 пикселей
Соотношение сторон : 16:9
Режим частоты кадров : Постоянный
Частота кадров : 23,976 кадра/сек
Цветовое пространство : YUV
Субдискретизация насыщенности : 4:2:0
Битовая глубина : 8 бит
Тип развёртки : Прогрессивная
Default : Да
Forced : Нет
Основные цвета : BT.709
Характеристики трансфера : BT.709
Коэффициенты матрицы : BT.709
Аудио #1
Идентификатор : 2
Формат : AC-3
Формат/Информация : Audio Coding 3
Расширение режима : CM (complete main)
Параметр Endianness формата : Big
Идентификатор кодека : A_AC3
Продолжительность : 1 ч. 26 м.
Вид битрейта : Постоянный
Битрейт : 448 Кбит/сек
Каналы : 6 каналов
Расположение каналов : Front: L C R, Side: L R, LFE
Частота : 48,0 КГц
Битовая глубина : 16 бит
Метод сжатия : С потерями
Размер потока : 277 Мбайт (2%)
Заголовок : AC3 5.1 @ 448 kbps - MVO
Язык : Russian
Default : Да
Forced : Нет
Аудио #2
Идентификатор : 3
Формат : AC-3
Формат/Информация : Audio Coding 3
Расширение режима : CM (complete main)
Параметр Endianness формата : Big
Идентификатор кодека : A_AC3
Продолжительность : 1 ч. 26 м.
Вид битрейта : Постоянный
Битрейт : 448 Кбит/сек
Каналы : 6 каналов
Расположение каналов : Front: L C R, Side: L R, LFE
Частота : 48,0 КГц
Битовая глубина : 16 бит
Метод сжатия : С потерями
Размер потока : 277 Мбайт (2%)
Заголовок : AC3 5.1 @ 448 kbps - VO zamez
Язык : Russian
Default : Нет
Forced : Нет
Аудио #3
Идентификатор : 4
Формат : DTS
Формат/Информация : Digital Theater Systems
Профиль формата : MA / Core
Режим : 16
Параметр Endianness формата : Big
Идентификатор кодека : A_DTS
Продолжительность : 1 ч. 26 м.
Вид битрейта : Переменный
Битрейт : Неизвестно / 1509 Кбит/сек
Каналы : 6 каналов
Расположение каналов : Front: L C R, Side: L R, LFE
Частота : 48,0 КГц
Битовая глубина : 24 бит
Метод сжатия : Без потерь / Lossy
Заголовок : DTS-HD MA 5.1 Original @ 3808 kbps
Язык : English
Default : Нет
Forced : Нет
Текст
Идентификатор : 5
Формат : UTF-8
Идентификатор кодека : S_TEXT/UTF8
Идентификатор кодека/Информация : UTF-8 Plain Text
Заголовок : Full Rus
Язык : Russian
Default : Нет
Forced : Нет
Меню
00:00:00.000 : :Chapter 01
00:11:29.438 : :Chapter 02
00:22:55.624 : :Chapter 03
00:33:35.138 : :Chapter 04
00:44:20.991 : :Chapter 05
00:54:07.577 : :Chapter 06
01:04:31.117 : :Chapter 07
01:13:55.806 : :Chapter 08

BV

-Скриншоты:
Время раздачи: с 10:00 до 23:00 (мск)

[Цитировать]



Показать сообщения:    

Текущее время: 09-Дек 16:38

Часовой пояс: UTC + 3


Вы не можете начинать темы
Вы не можете отвечать на сообщения
Вы не можете редактировать свои сообщения
Вы не можете удалять свои сообщения
Вы не можете голосовать в опросах
Вы не можете прикреплять файлы к сообщениям
Вы не можете скачивать файлы

!ВНИМАНИЕ!
Сайт не предоставляет электронные версии произведений, а занимается лишь коллекционированием и каталогизацией ссылок, присылаемых и публикуемых на форуме нашими читателями. Если вы являетесь правообладателем какого-либо представленного материала и не желаете, чтобы ссылка на него находилась в нашем каталоге, свяжитесь с нами, и мы незамедлительно удалим ее. Файлы для обмена на трекере предоставлены пользователями сайта, и администрация не несет ответственности за их содержание. Просьба не заливать файлы, защищенные авторскими правами, а также файлы нелегального содержания!