[ Сегодня идет свободное скачивание без начисления Download ]


Статистика раздачи
Нет
 
   
 
Top  
 
 
ПодменаSwitch- Страна: Франция
Жанр: триллер, криминал
Год выпуска: 2011
Продолжительность: 01:43:41-Перевод: Профессиональный (многоголосый, закадровый) [НТВ+]
Субтитры: нет
Режиссер: Фредерик Шёндёрфер / Fr?d?ric Schoendoerffer
В ролях: Карин Ванасс, Эрик Кантона, Мехди Неббу, Орельен Рекуан, Карина Теста, Бруно Тодескини, Максим Рой, Низеема Тейо, Софи Фочер, Стефан Гуэрин-Тилли, Sarah Pebereau, Карим Салах-Описание: Не имея никаких планов, 25-летняя дизайнер моды из Канады Софи с тоской смотрит на приближающийся летний отпуск. Попавшийся ей на глаза сайт в интернете предлагает обмен домами, и взамен своего дома она на месяц получает апартаменты с видом на Эйфелеву башню в Париже.
Первый день на новом месте был полной идиллией, но на утро она пробуждается от вторжения полиции. В соседней комнате находят обезглавленное тело, а сама Софи оказывается не способной доказать полиции, что она не владелица квартиры Бенедикт Серто. Ловушка перед ней быстро захлопывается.-

-

Доп. Информация

Сценарий: Жан-Кристоф Гранже / Jean-Christophe Grang?, Фредерик Шёндёрфер / Fr?d?ric Schoendoerffer
Продюсер: Жан-Кристоф Гранже / Jean-Christophe Grang?, Эрик Нивё / ?ric N?v?, Фредерик Шёндёрфер / Fr?d?ric Schoendoerffer
Оператор: Венсан Галло / Vincent Gallot
Композитор: Бруно Куле / Bruno Coulais
Мировая премьера: 6 июля 2011
-Качество: HDRip
Контейнер: AVI
Видео: XviD, 720x400 (16:9), 1686 kbps, 23,976 fps, 0,244 bpp
Аудио: AC3 / 2.0 / 48 kHz / 192 kbps / 16 bit-

Media Info

General
Complete name : G:\Podmena.2011.P.HDRip.1400Mb.avi
Format : AVI
Format/Info : Audio Video Interleave
File size : 1.37 GiB
Duration : 1h 43mn
Overall bit rate : 1 888 Kbps
Writing application : VirtualDubMod 1.5.10.2 (build 2540/release)
Writing library : VirtualDubMod build 2540/release
Video
ID : 0
Format : MPEG-4 Visual
Format profile : Advanced [email protected]
Format settings, BVOP : 2
Format settings, QPel : No
Format settings, GMC : No warppoints
Format settings, Matrix : Default (MPEG)
Codec ID : XVID
Codec ID/Hint : XviD
Duration : 1h 43mn
Bit rate : 1 687 Kbps
Width : 720 pixels
Height : 400 pixels
Display aspect ratio : 16:9
Frame rate : 23.976 fps
Color space : YUV
Chroma subsampling : 4:2:0
Bit depth : 8 bits
Scan type : Progressive
Compression mode : Lossy
Bits/(Pixel*Frame) : 0.244
Stream size : 1.22 GiB (89%)
Writing library : XviD 1.2.1 (UTC 2008-12-04)
Audio
ID : 1
Format : AC-3
Format/Info : Audio Coding 3
Mode extension : CM (complete main)
Codec ID : 2000
Duration : 1h 43mn
Bit rate mode : Constant
Bit rate : 192 Kbps
Channel(s) : 2 channels
Channel positions : Front: L R
Sampling rate : 48.0 KHz
Bit depth : 16 bits
Compression mode : Lossy
Stream size : 142 MiB (10%)
Alignment : Split accross interleaves
Interleave, duration : 42 ms (1.00 video frame)
Interleave, preload duration : 500 ms

Скриншот с названием фильма

Скриншоты

[Цитировать]



Показать сообщения:    

Текущее время: 06-Дек 19:08

Часовой пояс: UTC + 3


Вы не можете начинать темы
Вы не можете отвечать на сообщения
Вы не можете редактировать свои сообщения
Вы не можете удалять свои сообщения
Вы не можете голосовать в опросах
Вы не можете прикреплять файлы к сообщениям
Вы не можете скачивать файлы

!ВНИМАНИЕ!
Сайт не предоставляет электронные версии произведений, а занимается лишь коллекционированием и каталогизацией ссылок, присылаемых и публикуемых на форуме нашими читателями. Если вы являетесь правообладателем какого-либо представленного материала и не желаете, чтобы ссылка на него находилась в нашем каталоге, свяжитесь с нами, и мы незамедлительно удалим ее. Файлы для обмена на трекере предоставлены пользователями сайта, и администрация не несет ответственности за их содержание. Просьба не заливать файлы, защищенные авторскими правами, а также файлы нелегального содержания!