[ Сегодня идет свободное скачивание без начисления Download ]


Статистика раздачи
Нет
 
   
 
Top  
 
 
-Песня для изгоя / Song for a Raggy Boy (2003) DVDRip-«В доме Господа они нашли... Ад»- Год выпуска: 2003
Производство: Ирландия, Великобритания, Дания, Испания / Fantastic Films Ltd., Lolafilms S.A., Moviefan Scandinavia A/S, Subotica Entertainment Ltd., Titian Red Pictures, Zoma Films Ltd..
Жанр: Драма-Описание фильма: 1939 год. В ирландскую католическую школу приходит новый учитель Уильям Франклин. Он преподает юным послушникам литературу и находит себя в доме Господа, после потери близкого человека.
Но в школе царят фашистские порядки и остальные учителя настроены к нему отнюдь не доброжелательно. Желая помочь мальчикам, но не желая потерять работу Уильям понимает, что лучший способ показать им, как отстоять вещи, в которые они верят — это навсегда изменить их самих.-Режиссер: Эйслинг Уолш
Продюсер: Тристан Линч, Джон МакДоннел, Кевин Байрон Мерфи
Актеры: Эйдан Куинн, Айэйн Глен, Марк Уоррен, Джон Треверс, Крис Ньюман, Эндрю Симпсон, Дадли Саттон, Алан Девлин, Стюарт Грэхэм, Марк Батлер и др.-Продолжительность: 01:33:34
Качество видео: DVDRip
Перевод: Профессиональный, многоголосый закадровый
Язык субтитров: отсутствуют
- -16+-Дата мировой премьеры: .......................................19 января 2003
Дата выхода релиза на DVD: ..................................7 апреля 2005, «Союз-Видео»-Видео: MPEG4, XviD, 608x352 (16:9), 25.000 fps, 974 Kbps (0.182 bit/pixel)
Аудио: MP3, 48.0 KHz, 2 ch, 128 Kbps, CBR
-

MediaInfo

General
Complete name : D:\Видео\Pesnya_dlya_izgoya_DVDRip.avi
Format : AVI
Format/Info : Audio Video Interleave
File size : 744 MiB
Duration : 1h 33mn
Overall bit rate : 1 111 Kbps
Writing application : VirtualDubMod 1.5.10.3 | www.virtualdub-fr.org || (build 2550/release)
Writing library : VirtualDubMod build 2550/release
Video
ID : 0
Format : MPEG-4 Visual
Format profile : Advanced Simple@L5
Format settings, BVOP : 1
Format settings, QPel : No
Format settings, GMC : No warppoints
Format settings, Matrix : Custom
Codec ID : XVID
Codec ID/Hint : XviD
Duration : 1h 33mn
Bit rate : 974 Kbps
Width : 608 pixels
Height : 352 pixels
Display aspect ratio : 1.727
Frame rate : 25.000 fps
Color space : YUV
Chroma subsampling : 4:2:0
Bit depth : 8 bits
Scan type : Progressive
Compression mode : Lossy
Bits/(Pixel*Frame) : 0.182
Stream size : 652 MiB (88%)
Writing library : XviD 73
Audio
ID : 1
Format : MPEG Audio
Format version : Version 1
Format profile : Layer 3
Codec ID : 55
Codec ID/Hint : MP3
Duration : 1h 33mn
Bit rate mode : Constant
Bit rate : 128 Kbps
Channel(s) : 2 channels
Sampling rate : 48.0 KHz
Compression mode : Lossy
Stream size : 85.7 MiB (12%)
Alignment : Aligned on interleaves
Interleave, duration : 40 ms (1.00 video frame)
Interleave, preload duration : 504 ms
Writing library : LAME3.99r
Encoding settings : -m s -V 4 -q 2 -lowpass 17 -b 128

Рецензия на КиноПоиске от klemencia

«Божье дело»
«Песня для изгоя» — кино очень жестокое, многие сцены заставляют содрогнуться, будто бы смотришь настоящий фильм ужасов. Иной раз просто невозможно поверить, что речь о 30-х годах ХХ века, а не о средневековом подвале во времена деятельности католической инквизициии.
Впрочем, «братья» словно бы вышли из той мрачной эпохи. Каждый из них — смесь страшных, нечеловеческих пороков.
Брат Джон — воплощение зверской жестокости. Он лишен чувства сострадания, дети для него — всего лишь «существа». Остается только гадать, как вообще курия допустила такого человека к работе с детьми, и в число своих членов. «Врата ада открылись сегодня», — скажет он о приходе Уильяма Франклина в школу. Нет, врата ада распахнулись в тот день, когда брат Джон был пострижен в монахи.
Брат Мак — человек слабый и духом, и по природе. Будучи слугой Христа, он не смог не только подавить в себе гомосексуальные наклонности, но и стал растлителем несовершеннолетних мальчиков. Интересна реакция на страсть брата Мака вышестоящих церковников. Они обо всем знают, но прощают ему эти «мелкие грехи», приказывая мальчикам на исповеди хранить молчание и терпеть, как подобает истинным христианам.
Остальные братья «добрые», ведь они не бьют, не издеваются. Нет, они просто смотрят на все это молча. Видимо, из того же принципа христианского терпения. В целом они столь же ничтожны, как Джон и Мак.
Не жалеть мальчиков невозможно. Порой слезы сами собой катятся из глаз. Актеры подобраны превосходно. Наверное именно по этой причине фильм воспринимается настолько живо.
В фильме преобладают серые тона, но это именно то, что нужно для создания атмосферы безысходности, в которой жили мальчики. Представьте, что вы не имеете права на свои мысли и чувства, даже на свое тело и вас никто не защитит от того, кто только выглядит как человек.
«Песня для изгоя» — фильм, непредназначенный для всех. Он для тех людей, кто не боится выступить против системы, даже зная, что одиночка, бросая вызов толпе, почти не имеет шансов выиграть, а если и победит, то ценой самой страшной жертвы.
8 из 10

Награды и премии

Карловы Вары, 2003 год
Номинации (1):
Хрустальный глобус
-Скриншоты:

-Время раздачи: 24/7 - круглосуточно (до первых сидов - потом по возможности)-Скорость отдачи: 1 Мбит/c. Так что большой скорости не обещаю.

[Цитировать]



Показать сообщения:    

Текущее время: 07-Дек 00:58

Часовой пояс: UTC + 3


Вы не можете начинать темы
Вы не можете отвечать на сообщения
Вы не можете редактировать свои сообщения
Вы не можете удалять свои сообщения
Вы не можете голосовать в опросах
Вы не можете прикреплять файлы к сообщениям
Вы не можете скачивать файлы

!ВНИМАНИЕ!
Сайт не предоставляет электронные версии произведений, а занимается лишь коллекционированием и каталогизацией ссылок, присылаемых и публикуемых на форуме нашими читателями. Если вы являетесь правообладателем какого-либо представленного материала и не желаете, чтобы ссылка на него находилась в нашем каталоге, свяжитесь с нами, и мы незамедлительно удалим ее. Файлы для обмена на трекере предоставлены пользователями сайта, и администрация не несет ответственности за их содержание. Просьба не заливать файлы, защищенные авторскими правами, а также файлы нелегального содержания!