[ Сегодня идет свободное скачивание без начисления Download ]


Статистика раздачи
Нет
 
   
 
Top  
 
 
-Пентхаус с видом на север / Penthouse North (2013) HDRip- Год выпуска: 2013
Жанр: Триллер, Драма, Криминал
Описание фильма:
После трагического происшествия девушка-фотокорреспондент слепнет. Злая на весь мир, она отгораживается от внешнего мира, закрывшись в нью-йоркском пентхаусе. Её единственная отрада — молодой человек, который хоть как-то помогает ей не пасть духом. И вот однажды в квартиру врывается преступник-садист, ищущий спрятанные ценности. Героине приходится преодолевать боль и страх перед внешним миром, чтобы выжить…
Режиссер: Джозеф Рубин
Актеры: Барри Слоун, Тимоти Пол Кодерр, Майкл Китон, Мишель Монаган, Эндрю В. Уокер
Продолжительность: 01:25:38
Качество видео: HDRip
Перевод: Любительский (одноголосый) [totl]

Сэмпл
____________________________
Видеокодек: Xvid
Битрейт видео: ~2005 kbps
Размер кадра: 704x384
Аудио: MP3, 2 ch, 256 kbps

MI

Общее
Полное имя : D:\cinema\HD-Rip\Penthouse.North.L1.2013.avi
Формат : AVI
Формат/Информация : Audio Video Interleave
Размер файла : 1,36 Гбайт
Продолжительность : 1 ч. 25 м.
Общий поток : 2271 Кбит/сек
Программа кодирования : VirtualDubMod 1.5.10.2 (build 2542/release)
Библиотека кодирования : VirtualDubMod build 2542/release
Видео
Идентификатор : 0
Формат : MPEG-4 Visual
Профиль формата : Advanced Simple@L5
Параметр BVOP формата : 2
Параметр QPel формата : Нет
Параметр GMC формата : Без точки перехода
Параметр матрицы формата : Выборочная
Идентификатор кодека : XVID
Идентификатор кодека/Подсказка : XviD
Продолжительность : 1 ч. 25 м.
Битрейт : 2005 Кбит/сек
Ширина : 704 пикс.
Высота : 384 пикс.
Соотношение сторон : 16:9
Частота кадров : 23,976 кадр/сек
Цветовое пространство : YUV
Подвыборка цветности : 4:2:0
Битовая глубина : 8 бит
Тип развёртки : Прогрессивная
Метод сжатия : С потерями
Бит/(Пиксели*Кадры) : 0.309
Размер потока : 1,20 Гбайт (88%)
Библиотека кодирования : XviD 73
Аудио
Идентификатор : 1
Формат : MPEG Audio
Версия формата : Version 1
Профиль формата : Layer 3
Режим : Joint stereo
Идентификатор кодека : 55
Идентификатор кодека/Подсказка : MP3
Продолжительность : 1 ч. 25 м.
Вид битрейта : Постоянный
Битрейт : 256 Кбит/сек
Канал(ы) : 2 канала(ов)
Частота : 44,1 КГц
Метод сжатия : С потерями
Размер потока : 157 Мбайт (11%)
Выравнивание : Разделение по промежуткам
Продолжительность промежутка : 42 мс. (1,00 видеокадр)
Время предзагрузки промежутка : 500 ms
Библиотека кодирования : LAME3.98.4
Скриншоты:
Время раздачи: c 23:00 до 6:30

[Цитировать]



Показать сообщения:    

Текущее время: 08-Дек 09:02

Часовой пояс: UTC + 3


Вы не можете начинать темы
Вы не можете отвечать на сообщения
Вы не можете редактировать свои сообщения
Вы не можете удалять свои сообщения
Вы не можете голосовать в опросах
Вы не можете прикреплять файлы к сообщениям
Вы не можете скачивать файлы

!ВНИМАНИЕ!
Сайт не предоставляет электронные версии произведений, а занимается лишь коллекционированием и каталогизацией ссылок, присылаемых и публикуемых на форуме нашими читателями. Если вы являетесь правообладателем какого-либо представленного материала и не желаете, чтобы ссылка на него находилась в нашем каталоге, свяжитесь с нами, и мы незамедлительно удалим ее. Файлы для обмена на трекере предоставлены пользователями сайта, и администрация не несет ответственности за их содержание. Просьба не заливать файлы, защищенные авторскими правами, а также файлы нелегального содержания!