[ Сегодня идет свободное скачивание без начисления Download ]


Статистика раздачи
Нет
 
   
 
Top  
 
 
-Огненный Лис / Firefox (1982) DVDRip- Год выпуска: 1982
Жанр: Военный, Боевик, Детектив
Описание фильма:
По роману Крейга Томаса. «Огненный лис» - сверхсекретный самолет с современным вооружением, не поддающийся радиолокационному улавливанию. Вот этот самолёт, изобретенный в СССР, пытаются украсть американцы. Непростое дело украсть самолёт, да ещё с территории СССР, да и с секретной базы, на которую тоже надо суметь попасть. Для этой цели посылается специально обученный агент Митчел Гант.
Режиссер: Клин Иствуд
Актеры: Клинт Иствуд, Фредди Джонс, Дэвид Хаффман, Рональд Лэйси, Кеннет Колли, Клаус Лёвитч, Найджел Хоторн, Стефан Шнабель, Клайв Меррисон, Кай Вулфф, Димитра Арлисс, Майкл Керри, Джеймс Стейли, Уорд Костелло, Алан Тилверн, Оливер Коттон, Бернар Беренс, Ричард Дерр, Вуди Эней, Бернард Эрхард, Хью Фрэйзер, Джон Грилло, Чеслав Грохольски, Остин Уиллис, Нил Хант, Винсент Дж. Айзек, Алексей Явдокимов, Вольф Калер, Юджин Липински, Курт Ловенс, Лев Мэйлер, Фритц Мэйнс, Джордж Оррисон, Тони Папенфусс, Оливер Пьер, Джордж Правда, Джон Ратценбергер, Алекс Родин, Уорвик Симс, Малкольм Сторри, Крис Винфилд, Александр Зэл, Дэвид Мейерс, Лэнс Розен, Джон Йэтс
Продолжительность: 02:04:41
Качество видео: DVDRip
Перевод: Многоголосый закадровый

Видеокодек: Xvid
Битрейт видео: ~1851Kb\s
Размер кадра: 720x304
Аудиокодек: AC3
Битрейт аудио: 192Kb\s
Скриншоты:

MediaInfo

Общее
Полное имя : F:\Movie\Ognennyj.lis.1982.avi
Формат : AVI
Формат/Информация : Audio Video Interleave
Профиль формата : OpenDML
Размер файла : 2,19 Гбайт
Продолжительность : 2 ч. 4 м.
Общий поток : 2509 Кбит/сек
Название фильма : Огненный лис / Firefox (1982) BDRip
Режиссёр : kingsize87 (Blu-ray Remux)
Программа кодирования : VirtualDubMod 1.5.10.2 (build 2542/release)
Правообладатель : HQCLUB (http://hqclub.net)
Примечание : 12.07.2011
Видео
Идентификатор : 0
Формат : MPEG-4 Visual
Профиль формата : Advanced Simple@L5
Параметр BVOP формата : 1
Параметр QPel формата : Нет
Параметр GMC формата : Без точки перехода
Параметр матрицы формата : Выборочная
Идентификатор кодека : XVID
Идентификатор кодека/Подсказка : XviD
Продолжительность : 2 ч. 4 м.
Битрейт : 1851 Кбит/сек
Ширина : 720 пикселей
Высота : 304 пикселя
Соотношение сторон : 2,35:1
Частота кадров : 23,976 кадра/сек
Цветовое пространство : YUV
Субдискретизация насыщенности : 4:2:0
Битовая глубина : 8 бит
Тип развёртки : Прогрессивная
Метод сжатия : С потерями
Бит/(Пиксели*Кадры) : 0.353
Размер потока : 1,61 Гбайт (74%)
Библиотека кодирования : XviD 62
Аудио #1
Идентификатор : 1
Формат : AC-3
Формат/Информация : Audio Coding 3
Расширение режима : CM (complete main)
Параметр Endianness формата : Big
Идентификатор кодека : 2000
Продолжительность : 2 ч. 4 м.
Вид битрейта : Постоянный
Битрейт : 192 Кбит/сек
Каналы : 2 канала
Расположение каналов : Front: L R
Частота : 48,0 КГц
Битовая глубина : 16 бит
Метод сжатия : С потерями
Размер потока : 171 Мбайт (8%)
Выравнивание : Разделение по промежуткам
Продолжительность промежутка : 42 мс. (1,00 видеокадр)
Время предзагрузки промежутка : 500 мс.
Аудио #2
Идентификатор : 2
Формат : AC-3
Формат/Информация : Audio Coding 3
Расширение режима : CM (complete main)
Параметр Endianness формата : Big
Идентификатор кодека : 2000
Продолжительность : 2 ч. 4 м.
Вид битрейта : Постоянный
Битрейт : 448 Кбит/сек
Каналы : 6 каналов
Расположение каналов : Front: L C R, Side: L R, LFE
Частота : 48,0 КГц
Битовая глубина : 16 бит
Метод сжатия : С потерями
Размер потока : 400 Мбайт (18%)
Выравнивание : Разделение по промежуткам
Продолжительность промежутка : 42 мс. (1,00 видеокадр)
Время предзагрузки промежутка : 500 мс.
Время раздачи: 24/7

[Цитировать]



Показать сообщения:    

Текущее время: 10-Дек 17:48

Часовой пояс: UTC + 3


Вы не можете начинать темы
Вы не можете отвечать на сообщения
Вы не можете редактировать свои сообщения
Вы не можете удалять свои сообщения
Вы не можете голосовать в опросах
Вы не можете прикреплять файлы к сообщениям
Вы не можете скачивать файлы

!ВНИМАНИЕ!
Сайт не предоставляет электронные версии произведений, а занимается лишь коллекционированием и каталогизацией ссылок, присылаемых и публикуемых на форуме нашими читателями. Если вы являетесь правообладателем какого-либо представленного материала и не желаете, чтобы ссылка на него находилась в нашем каталоге, свяжитесь с нами, и мы незамедлительно удалим ее. Файлы для обмена на трекере предоставлены пользователями сайта, и администрация не несет ответственности за их содержание. Просьба не заливать файлы, защищенные авторскими правами, а также файлы нелегального содержания!