[ Сегодня идет свободное скачивание без начисления Download ]


Статистика раздачи
Нет
 
   
 
 
 
-Корона и дракон / The Crown and the Dragon (2013) BDRip- Год выпуска: 2013
Производство: США, Arrowstorm Entertainment / Wulf / Gourley Productions
Жанр: Фэнтези, Приключения
Перевод: Любительский одноголосый (Vano)
Субтитры: Вшитые отключаемые
Язык субтитров: Aнглийский
Дата мировой премьеры: 11 июля 2013
Режиссер: Энн К. Блэк
Продюсер: Кайнен Гриффин, Дэвид М. Вульф
Актеры: Эми Де Брюн, Кайнен Гриффин Ава Хант, Грант Хатчинсон Киаран О’Грэйди, Никки Поснер, Видал Санчо, Тим Трелоа
Описание фильма:
Через истерзанную войной страну, страдающюю от жестокого дракона, молодая дворянка сопровождает свою тетю, чтобы доставить древнюю реликвию на секретную коронацию законного короля.

Продолжительность: 01:31:35
Качество видео: BDRip 720p
Видеокодек: MPEG-4 AVC/H.264
Битрейт видео: ~5325 Kbit/s
Размер кадра: 1280 x 720
Aудио #1: AC3, 48,0 КHz, 5.1, 448 Kbit/s - Русский
Aудио #2: DTS, 48,0 КHz, 5.1, 1510 Kbit/s - Aнглийский

MediaInfo

Общее
Уникальный идентификатор : 193783210525989038919013734615079922725 (0x91C949EDF463EEF789A8AD997DB32C25)
Полное имя : D:\Торренты\Корона и дракон.2013.BDRip.720p.mkv
Формат : Matroska
Размер файла : 4,66 Гбайт
Продолжительность : 1 ч. 31 м.
Общий поток : 7283 Кбит/сек
Дата кодирования : UTC 2013-07-22 20:41:58
Программа кодирования : mkvmerge v2.9.8 ('C'est le bon') built on Nov 20 2009 13:01:15
Библиотека кодирования : libebml v0.7.9 + libmatroska v0.8.1
Видео
Идентификатор : 1
Формат : AVC
Формат/Информация : Advanced Video Codec
Профиль формата : [email protected]
Параметр CABAC формата : Да
Параметр ReFrames формата : 5 кадров
Параметры GOP формата : M=4, N=27
Идентификатор кодека : V_MPEG4/ISO/AVC
Продолжительность : 1 ч. 31 м.
Битрейт : 5325 Кбит/сек
Ширина : 1280 пикс.
Высота : 720 пикс.
Соотношение сторон : 16:9
Частота кадров : 23,976 кадр/сек
Цветовое пространство : YUV
Подвыборка цветности : 4:2:0
Битовая глубина : 8 бит
Тип развёртки : Прогрессивная
Бит/(Пиксели*Кадры) : 0.241
Размер потока : 3,31 Гбайт (71%)
Библиотека кодирования : x264 core 133 r2334 a3ac64b
Настройки программы : cabac=1 / ref=5 / deblock=1:0:0 / analyse=0x3:0x113 / me=umh / subme=7 / psy=1 / psy_rd=1.00:0.00 / mixed_ref=1 / me_range=16 / chroma_me=1 / trellis=1 / 8x8dct=1 / cqm=0 / deadzone=21,11 / fast_pskip=0 / chroma_qp_offset=-2 / threads=18 / lookahead_threads=3 / sliced_threads=0 / nr=0 / decimate=1 / interlaced=0 / bluray_compat=0 / constrained_intra=0 / bframes=3 / b_pyramid=2 / b_adapt=1 / b_bias=0 / direct=1 / weightb=1 / open_gop=0 / weightp=2 / keyint=250 / keyint_min=23 / scenecut=40 / intra_refresh=0 / rc_lookahead=40 / rc=2pass / mbtree=1 / bitrate=5325 / ratetol=1.0 / qcomp=0.60 / qpmin=0 / qpmax=69 / qpstep=4 / cplxblur=20.0 / qblur=0.5 / ip_ratio=1.40 / aq=1:1.00
Язык : English
Аудио #1
Идентификатор : 2
Формат : AC-3
Формат/Информация : Audio Coding 3
Расширение режима : CM (complete main)
Идентификатор кодека : A_AC3
Продолжительность : 1 ч. 31 м.
Вид битрейта : Постоянный
Битрейт : 448 Кбит/сек
Каналы : 6 каналов
Расположение каналов : Front: L C R, Side: L R, LFE
Частота : 48,0 КГц
Битовая глубина : 16 бит
Метод сжатия : С потерями
Размер потока : 294 Мбайт (6%)
Язык : Russian
Аудио #2
Идентификатор : 3
Формат : DTS
Формат/Информация : Digital Theater Systems
Идентификатор кодека : A_DTS
Продолжительность : 1 ч. 31 м.
Вид битрейта : Постоянный
Битрейт : 1510 Кбит/сек
Каналы : 6 каналов
Расположение каналов : Front: L C R, Side: L R, LFE
Частота : 48,0 КГц
Битовая глубина : 24 бит
Метод сжатия : С потерями
Задержка видео : 11 мс.
Размер потока : 989 Мбайт (21%)
Заголовок : DTS
Язык : English
Текст
Идентификатор : 4
Формат : UTF-8
Идентификатор кодека : S_TEXT/UTF8
Идентификатор кодека/Информация : UTF-8 Plain Text
Заголовок : Forced
Язык : English
Меню
00:00:00.000 : en:00:00:00.000
00:06:35.186 : en:00:06:35.186
00:16:41.876 : en:00:16:41.876
00:21:49.683 : en:00:21:49.683
00:26:26.376 : en:00:26:26.376
00:36:39.197 : en:00:36:39.197
00:48:11.722 : en:00:48:11.722
00:53:31.834 : en:00:53:31.834
01:02:21.071 : en:01:02:21.071
01:11:40.004 : en:01:11:40.004
01:20:03.507 : en:01:20:03.507
01:26:50.914 : en:01:26:50.914
Скриншоты:
Время раздачи: 24/7 по возможности

[Цитировать]



Показать сообщения:    

Текущее время: 05-Дек 07:32

Часовой пояс: UTC + 3


Вы не можете начинать темы
Вы не можете отвечать на сообщения
Вы не можете редактировать свои сообщения
Вы не можете удалять свои сообщения
Вы не можете голосовать в опросах
Вы не можете прикреплять файлы к сообщениям
Вы не можете скачивать файлы

!ВНИМАНИЕ!
Сайт не предоставляет электронные версии произведений, а занимается лишь коллекционированием и каталогизацией ссылок, присылаемых и публикуемых на форуме нашими читателями. Если вы являетесь правообладателем какого-либо представленного материала и не желаете, чтобы ссылка на него находилась в нашем каталоге, свяжитесь с нами, и мы незамедлительно удалим ее. Файлы для обмена на трекере предоставлены пользователями сайта, и администрация не несет ответственности за их содержание. Просьба не заливать файлы, защищенные авторскими правами, а также файлы нелегального содержания!