[ Сегодня идет свободное скачивание без начисления Download ]


Статистика раздачи
Нет
 
   
 
Top  
 
 
-Бостонский душитель / The Boston Strangler (1968) BDRip [1080p]
«Why did 13 women willingly open their doors to the Boston Strangler?»
- Год выпуска: 1968
Производство: США, 20th Century Fox Film Corporation
Жанр: Триллер, Драма, Криминал
Описание фильма:
В Бостоне и близлежащих районах в период с июня 1962 по январь 1964 годы были убиты и изнасилованы одиннадцать женщин. Полиция во главе с Джоном Боттомли находится в тупике. Преступник не оставляет практически никаких улик. Не помогает даже привлечение к расследованию экстрасенса. В конце концов, убийцу ловят. Преследуемый после одного из своих преступлений, он случайно попадает под машину и его задерживает полиция. Им оказывается Альберто Де Сальво, сантехник, имеющий прекрасную жену и двух детей. В больнице Де Сальву допрашивают, но он ничего не может вспомнить, а прямых доказательств убийств нет. Полиция, ведущая расследование, обращает внимание на укус на его руке, который мог быть оставлен последней жертвой его неудавшегося покушения. Но девушка из-за травмы головы не может уверенно опознать в Де Сальво нападавшего. Джону Боттомли приходится начать с обвиняемым игру в «кошки-мышки»...
Режиссер: Ричард Флайшер
Актеры: Тони Кертис, Генри Фонда, Джордж Кеннеди, Майк Келлин, Херд Хэтфилд, Мюррэй Хэмилтон, Джефф Кори, Сэлли Келлермен, Уильям Маршалл, Джордж Восковек
Продолжительность: 01:56:11
Качество видео: BDRip
Перевод: Многоголосый закадровый (Петербург 5 канал)
Язык субтитров: Русский, английский
Субтитры: Вшитые отключаемые

Дата мировой премьеры: 16 октября 1968
Дата выхода DVD релиза: 22 октября 2009, «Двадцатый Век Фокс СНГ»

Видеокодек: MPEG-4 AVC/H.264
Битрейт видео: ~8980 Кбит/с
Размер кадра: 1920x816
Аудио 1: AC3 Русский 2.0 / 48 kHz / 192 kbps / 16-bit Профессиональный многоголосый (Петербург 5 канал)
Аудио 2: AC3 Английский 2.0 / 48 kHz / 192 kbps / 16-bit Оригинал
Сэмпл: Ссылка

MI

Общее
Уникальный идентификатор : 208287704432223949115189393554579108799 (0x9CB2C0B10976FBCF9BF598D26F7BB3BF)
Полное имя : C:\Xvid4PSP\The.Boston.Strangler.1968.BDRip.1080p.mkv
Формат : Matroska
Версия формата : Version 4 / Version 2
Размер файла : 7,60 Гбайт
Продолжительность : 1 ч. 56 м.
Общий поток : 9368 Кбит/сек
Название фильма : Бостонский душитель / The Boston Strangler (1968)
Дата кодирования : UTC 2013-07-20 12:53:28
Программа кодирования : mkvmerge v6.3.0 ('You can't stop me!') built on Jun 28 2013 20:09:41
Библиотека кодирования : libebml v1.3.0 + libmatroska v1.4.0
Видео
Идентификатор : 1
Формат : AVC
Формат/Информация : Advanced Video Codec
Профиль формата : [email protected]
Параметр CABAC формата : Да
Параметр ReFrames формата : 5 кадров
Идентификатор кодека : V_MPEG4/ISO/AVC
Продолжительность : 1 ч. 56 м.
Битрейт : 8980 Кбит/сек
Ширина : 1920 пикселей
Высота : 816 пикселей
Соотношение сторон : 2,35:1
Режим частоты кадров : Постоянный
Частота кадров : 23,976 кадра/сек
Цветовое пространство : YUV
Субдискретизация насыщенности : 4:2:0
Битовая глубина : 8 бит
Тип развёртки : Прогрессивная
Бит/(Пиксели*Кадры) : 0.239
Размер потока : 7,14 Гбайт (94%)
Заголовок : Release by N1NT3NDO
Библиотека кодирования : x264 core 133 r2334 a3ac64b
Настройки программы : cabac=1 / ref=5 / deblock=1:-3:-3 / analyse=0x3:0x133 / me=umh / subme=10 / psy=1 / psy_rd=1.00:0.00 / mixed_ref=1 / me_range=32 / chroma_me=1 / trellis=2 / 8x8dct=1 / cqm=0 / deadzone=21,11 / fast_pskip=0 / chroma_qp_offset=-2 / threads=12 / lookahead_threads=1 / sliced_threads=0 / nr=0 / decimate=0 / interlaced=0 / bluray_compat=0 / constrained_intra=0 / bframes=5 / b_pyramid=2 / b_adapt=2 / b_bias=0 / direct=3 / weightb=1 / open_gop=0 / weightp=2 / keyint=240 / keyint_min=23 / scenecut=40 / intra_refresh=0 / rc=2pass / mbtree=0 / bitrate=8980 / ratetol=1.0 / qcomp=0.60 / qpmin=0 / qpmax=69 / qpstep=4 / cplxblur=20.0 / qblur=0.5 / ip_ratio=1.40 / pb_ratio=1.30 / aq=1:0.70
Язык : English
Default : Да
Forced : Нет
Аудио #1
Идентификатор : 2
Формат : AC-3
Формат/Информация : Audio Coding 3
Профиль формата : Dolby Digital
Расширение режима : CM (complete main)
Параметр Endianness формата : Big
Идентификатор кодека : A_AC3
Продолжительность : 1 ч. 56 м.
Вид битрейта : Постоянный
Битрейт : 192 Кбит/сек
Каналы : 2 канала
Расположение каналов : Front: L R
Частота : 48,0 КГц
Битовая глубина : 16 бит
Метод сжатия : С потерями
Размер потока : 160 Мбайт (2%)
Заголовок : Rus (Петербург 5 канал)
Язык : Russian
Default : Нет
Forced : Нет
Аудио #2
Идентификатор : 3
Формат : AC-3
Формат/Информация : Audio Coding 3
Расширение режима : CM (complete main)
Параметр Endianness формата : Big
Идентификатор кодека : A_AC3
Продолжительность : 1 ч. 56 м.
Вид битрейта : Постоянный
Битрейт : 192 Кбит/сек
Каналы : 2 канала
Расположение каналов : Front: L R
Частота : 48,0 КГц
Битовая глубина : 16 бит
Метод сжатия : С потерями
Размер потока : 160 Мбайт (2%)
Заголовок : Eng
Язык : English
Default : Нет
Forced : Нет
Текст #1
Идентификатор : 4
Формат : UTF-8
Идентификатор кодека : S_TEXT/UTF8
Идентификатор кодека/Информация : UTF-8 Plain Text
Заголовок : Rus
Язык : Russian
Default : Нет
Forced : Нет
Текст #2
Идентификатор : 5
Формат : UTF-8
Идентификатор кодека : S_TEXT/UTF8
Идентификатор кодека/Информация : UTF-8 Plain Text
Заголовок : Eng
Язык : English
Default : Нет
Forced : Нет
Меню
00:00:00.000 : :Chapter 01
00:02:59.387 : :Chapter 02
00:07:40.334 : :Chapter 03
00:11:25.559 : :Chapter 04
00:17:41.101 : :Chapter 05
00:22:31.308 : :Chapter 06
00:25:50.340 : :Chapter 07
00:28:51.688 : :Chapter 08
00:35:38.553 : :Chapter 09
00:39:01.088 : :Chapter 10
00:44:51.105 : :Chapter 11
00:52:33.608 : :Chapter 12
00:58:32.926 : :Chapter 13
01:00:16.988 : :Chapter 14
01:05:16.746 : :Chapter 15
01:11:49.596 : :Chapter 16
01:15:30.526 : :Chapter 17
01:21:18.915 : :Chapter 18
01:23:41.099 : :Chapter 19
01:33:10.251 : :Chapter 20
01:36:19.356 : :Chapter 21
01:39:49.650 : :Chapter 22
01:41:59.113 : :Chapter 23
Скриншоты:

Время раздачи: 24/7

[Цитировать]



Показать сообщения:    

Текущее время: 06-Дек 20:59

Часовой пояс: UTC + 3


Вы не можете начинать темы
Вы не можете отвечать на сообщения
Вы не можете редактировать свои сообщения
Вы не можете удалять свои сообщения
Вы не можете голосовать в опросах
Вы не можете прикреплять файлы к сообщениям
Вы не можете скачивать файлы

!ВНИМАНИЕ!
Сайт не предоставляет электронные версии произведений, а занимается лишь коллекционированием и каталогизацией ссылок, присылаемых и публикуемых на форуме нашими читателями. Если вы являетесь правообладателем какого-либо представленного материала и не желаете, чтобы ссылка на него находилась в нашем каталоге, свяжитесь с нами, и мы незамедлительно удалим ее. Файлы для обмена на трекере предоставлены пользователями сайта, и администрация не несет ответственности за их содержание. Просьба не заливать файлы, защищенные авторскими правами, а также файлы нелегального содержания!