[ Сегодня идет свободное скачивание без начисления Download ]


Статистика раздачи
Нет
 
   
 
Top  
 
 
Патриот / The Patriot«Some things are worth fighting for.»Год выхода: 2000
Жанр: боевик, драма, военный
Режиссер: Роланд Эммерих
В ролях: Мэл Гибсон, Хит Леджер, Джоэли Ричардсон, Джейсон Айзекс, Крис Купер, Чеки Карио, Рене Обержонуа, Лиза Бреннер, Том Уилкинсон, Донал Лог
Сюжет фильма:
Когда над страной вспыхнуло смертоносное пламя страшной войны, прославленный ветеран и отец семерых детей Бенджамин Мартин остался в стороне. Но хладнокровное убийство его сына в одночасье меняет всю его жизнь.
Жажда мести превратила воинскую науку в жестокую бойню, а мирного плантатора — в безжалостного командира самого опасного отряда повстанцев…
- -Выпущено: Германия, США
Продолжительность: 02:44:46

Формат: MKV
Источник: The Patriot (2000) Blu-ray HK 1080p AVC DD5.1-K.T.Club
Видео: 1280x544 at 23.976 fps, x264@L4.1, 2pass, ~7500 kbps avg
Аудио#1: Russian: 48 kHz, AC3, 3/2 (L,C,R,l,r) + LFE ch, ~640 kbps avg |Дубляж|
Аудио#2: English: 48 kHz, AC3, 3/2 (L,C,R,l,r) + LFE ch, ~640 kbps avg
Субтитры: Russian, English

[b][color=#006699]Log[/color][/b]

x264 [info]: frame I:969 Avg QP:16.62 size:213266
x264 [info]: frame P:31032 Avg QP:18.45 size:112139
x264 [info]: frame B:132691 Avg QP:20.37 size: 72470

[b][color=#006699]MediaInfo[/color][/b]

General
Unique ID : 183837306823332040283751930499620960280 (0x8A4DC704627EB0F993DC4A702E3C7818)
Complete name : The.Patriot.2000.720p.BluRay.Rus.Eng.HDCLUB.mkv
Format : Matroska
Format version : Version 4 / Version 2
File size : 10.1 GiB
Duration : 2h 44mn
Overall bit rate : 8 780 Kbps
Encoded date : UTC 2010-02-22 21:41:31
Writing application : mkvmerge v5.9.0 ('On The Loose') built on Dec 9 2012 15:37:01
Writing library : libebml v1.3.0 + libmatroska v1.4.0
Video
ID : 1
Format : AVC
Format/Info : Advanced Video Codec
Format profile : High@L4.1
Format settings, CABAC : Yes
Format settings, ReFrames : 10 frames
Codec ID : V_MPEG4/ISO/AVC
Duration : 2h 44mn
Bit rate : 7 500 Kbps
Width : 1 280 pixels
Height : 544 pixels
Display aspect ratio : 2.35:1
Frame rate mode : Constant
Frame rate : 23.976 fps
Color space : YUV
Chroma subsampling : 4:2:0
Bit depth : 8 bits
Scan type : Progressive
Bits/(Pixel*Frame) : 0.449
Stream size : 8.43 GiB (83%)
Writing library : x264 core 125 r2200 999b753
Encoding settings : cabac=1 / ref=10 / deblock=1:-3:-3 / analyse=0x3:0x113 / me=umh / subme=10 / psy=1 / psy_rd=1.00:0.00 / mixed_ref=1 / me_range=48 / chroma_me=1 / trellis=2 / 8x8dct=1 / cqm=0 / deadzone=21,11 / fast_pskip=1 / chroma_qp_offset=-2 / threads=6 / lookahead_threads=1 / sliced_threads=0 / nr=0 / decimate=1 / interlaced=0 / bluray_compat=0 / constrained_intra=0 / bframes=8 / b_pyramid=2 / b_adapt=2 / b_bias=0 / direct=3 / weightb=1 / open_gop=0 / weightp=2 / keyint=240 / keyint_min=23 / scenecut=40 / intra_refresh=0 / rc_lookahead=40 / rc=2pass / mbtree=1 / bitrate=7500 / ratetol=1.0 / qcomp=0.60 / qpmin=10 / qpmax=51 / qpstep=4 / cplxblur=20.0 / qblur=0.5 / vbv_maxrate=50000 / vbv_bufsize=50000 / nal_hrd=none / ip_ratio=1.40 / aq=1:1.00
Language : English
Default : Yes
Forced : No
Audio #1
ID : 2
Format : AC-3
Format/Info : Audio Coding 3
Mode extension : CM (complete main)
Format settings, Endianness : Big
Codec ID : A_AC3
Duration : 2h 44mn
Bit rate mode : Constant
Bit rate : 640 Kbps
Channel(s) : 6 channels
Channel positions : Front: L C R, Side: L R, LFE
Sampling rate : 48.0 KHz
Bit depth : 16 bits
Compression mode : Lossy
Stream size : 754 MiB (7%)
Title : Dub
Language : Russian
Default : Yes
Forced : No
Audio #2
ID : 3
Format : AC-3
Format/Info : Audio Coding 3
Mode extension : CM (complete main)
Format settings, Endianness : Big
Codec ID : A_AC3
Duration : 2h 44mn
Bit rate mode : Constant
Bit rate : 640 Kbps
Channel(s) : 6 channels
Channel positions : Front: L C R, Side: L R, LFE
Sampling rate : 48.0 KHz
Bit depth : 16 bits
Compression mode : Lossy
Stream size : 754 MiB (7%)
Title : Original
Language : English
Default : No
Forced : No
Text #1
ID : 4
Format : UTF-8
Codec ID : S_TEXT/UTF8
Codec ID/Info : UTF-8 Plain Text
Language : Russian
Default : No
Forced : No
Text #2
ID : 5
Format : UTF-8
Codec ID : S_TEXT/UTF8
Codec ID/Info : UTF-8 Plain Text
Language : English
Default : No
Forced : No
Menu
00:00:00.000 : en:00:00:00.000
00:10:59.784 : en:00:10:59.784
00:22:28.389 : en:00:22:28.389
00:30:05.554 : en:00:30:05.554
00:36:42.158 : en:00:36:42.158
00:48:52.888 : en:00:48:52.888
00:57:34.159 : en:00:57:34.159
01:07:32.465 : en:01:07:32.465
01:19:39.024 : en:01:19:39.024
01:28:00.317 : en:01:28:00.317
01:38:02.710 : en:01:38:02.710
01:50:52.020 : en:01:50:52.020
01:57:49.688 : en:01:57:49.688
02:04:48.731 : en:02:04:48.731
02:21:06.291 : en:02:21:06.291
02:28:36.032 : en:02:28:36.032
Сохранены оригинальные чаптеры как на Blu-ray.
РАЗДАЧА ОТ:

[Цитировать]



Показать сообщения:    

Текущее время: 10-Дек 05:58

Часовой пояс: UTC + 3


Вы не можете начинать темы
Вы не можете отвечать на сообщения
Вы не можете редактировать свои сообщения
Вы не можете удалять свои сообщения
Вы не можете голосовать в опросах
Вы не можете прикреплять файлы к сообщениям
Вы не можете скачивать файлы

!ВНИМАНИЕ!
Сайт не предоставляет электронные версии произведений, а занимается лишь коллекционированием и каталогизацией ссылок, присылаемых и публикуемых на форуме нашими читателями. Если вы являетесь правообладателем какого-либо представленного материала и не желаете, чтобы ссылка на него находилась в нашем каталоге, свяжитесь с нами, и мы незамедлительно удалим ее. Файлы для обмена на трекере предоставлены пользователями сайта, и администрация не несет ответственности за их содержание. Просьба не заливать файлы, защищенные авторскими правами, а также файлы нелегального содержания!