[ Сегодня идет свободное скачивание без начисления Download ]


Статистика раздачи
Нет
 
   
 
Top  
 
 
-Операция "Белвис" / Zero Dark Dirty (2013) HDRip«The War On Error»- Год выпуска: 2013
Производство: США / Vitalia Productions
Жанр: Мелодрама, Комедия, Военный
Перевод: Профессиональный многоголосый (НТВ+)
Субтитры: Отсутствуют
Дата мировой премьеры: 8 мая 2013
Режиссер: Лекс Львовски, Джо Валсер
Продюсер: Кристиана ДиПьетро, Ноэль Бриттон, Джанлука Коломбо
Актеры: Лекс Львовски, Марк Меткалф, Кори Фельдман, Ноэль Бриттон, Фрэнк Сталлоне, Дэниэл Болдуин, Ларри Томас, Хосров Вазири, Валид Амини, Куинн Гонзалес
Описание фильма:
В эпоху политических и национальных конфликтов американский рок-музыкант Белвис Баш рекрутируется армией США и отправляется в Афганистан, чтобы завоевать сердца и умы его жителей, где присоединяется к странной труппе, состоящей из комика разговорного жанра Сэмюэля, афганца-барабанщика Самира и актрисы музыкального театра Мэй. В это время таинственная фигура плетет зловещий заговор против американского певца. И ни Белвис, ни остальные исполнители не догадываются, что они являются участниками далеко идущего секретного плана…

Продолжительность: 01:29:28
Качество видео: HDRip
Видеокодек: Xvid
Битрейт видео: ~1986 Kbit/s
Размер кадра: 720 x 368
Аудиокодек: AC3 2.0
Битрейт аудио: 192 Kbit/s

MediaInfo

Общее
Полное имя : D:\Торренты\ФИЛЬМЫ торента\Операция Белвис.2013.HDRip.avi
Формат : AVI
Формат/Информация : Audio Video Interleave
Размер файла : 1,37 Гбайт
Продолжительность : 1 ч. 29 м.
Общий поток : 2187 Кбит/сек
Программа кодирования : VirtualDubMod 1.5.10.3 (build 2550/release)
Библиотека кодирования : VirtualDubMod build 2550/release
Видео
Идентификатор : 0
Формат : MPEG-4 Visual
Профиль формата : Advanced Simple@L5
Параметр BVOP формата : 2
Параметр QPel формата : Нет
Параметр GMC формата : Без точки перехода
Параметр матрицы формата : Выборочная
Идентификатор кодека : XVID
Идентификатор кодека/Подсказка : XviD
Продолжительность : 1 ч. 29 м.
Битрейт : 1986 Кбит/сек
Ширина : 720 пикс.
Высота : 368 пикс.
Соотношение сторон : 1,957
Частота кадров : 23,976 кадр/сек
Цветовое пространство : YUV
Подвыборка цветности : 4:2:0
Битовая глубина : 8 бит
Тип развёртки : Прогрессивная
Метод сжатия : С потерями
Бит/(Пиксели*Кадры) : 0.313
Размер потока : 1,24 Гбайт (91%)
Библиотека кодирования : XviD 1.2.1 (UTC 2008-12-04)
Аудио
Идентификатор : 1
Формат : AC-3
Формат/Информация : Audio Coding 3
Расширение режима : CM (complete main)
Идентификатор кодека : 2000
Продолжительность : 1 ч. 29 м.
Вид битрейта : Постоянный
Битрейт : 192 Кбит/сек
Каналы : 2 канала
Расположение каналов : Front: L R
Частота : 48,0 КГц
Битовая глубина : 16 бит
Метод сжатия : С потерями
Размер потока : 123 Мбайт (9%)
Выравнивание : Разделение по промежуткам
Продолжительность промежутка : 42 мс. (1,00 видеокадр)
Время предзагрузки промежутка : 500 ms
Скриншоты:
Время раздачи: 24/7 по возможности

[Цитировать]

Топик был перенесен из форума Новинки кинопроката в форум Мелодрама
Henkok



Показать сообщения:    

Текущее время: 10-Дек 09:55

Часовой пояс: UTC + 3


Вы не можете начинать темы
Вы не можете отвечать на сообщения
Вы не можете редактировать свои сообщения
Вы не можете удалять свои сообщения
Вы не можете голосовать в опросах
Вы не можете прикреплять файлы к сообщениям
Вы не можете скачивать файлы

!ВНИМАНИЕ!
Сайт не предоставляет электронные версии произведений, а занимается лишь коллекционированием и каталогизацией ссылок, присылаемых и публикуемых на форуме нашими читателями. Если вы являетесь правообладателем какого-либо представленного материала и не желаете, чтобы ссылка на него находилась в нашем каталоге, свяжитесь с нами, и мы незамедлительно удалим ее. Файлы для обмена на трекере предоставлены пользователями сайта, и администрация не несет ответственности за их содержание. Просьба не заливать файлы, защищенные авторскими правами, а также файлы нелегального содержания!