[ Сегодня идет свободное скачивание без начисления Download ]


Статистика раздачи
Нет
 
   
 
 
 
-Девятые врата / The Ninth Gate (1999) BDRip- Год выпуска: 1999
Жанр: Приключения,Мистика
Описание фильма:
Богатый коллекционер книг по ведьмоведению и демонологии из США, Борис Болкан нанимает эксперта и книготорговца Дина Корсо , чтобы тот сравнил имеющуюся у Болкана книгу с двумя другими экземплярами и установил подлинность одного из них. Во время выполнения задания Корсо сталкивается с таинственными убийствами владельцев книг.
Режиссер: Роман Полански
Актеры: Джонни Депп, Фрэнк Ланджелла, Лена Улин,Эмманюэль Сенье, Барбара Джеффорд, Джек Тейлор, Хосе Лопес Родеро, Тони Амони, Джеймс Руссо, Уилли Холт
Продолжительность: 02:13:15
Качество видео: BDRip-AVC
Перевод: Дублированный

Видеокодек: MPEG-4 AVC/H.264
Битрейт видео: ~2000 Kbps
Размер кадра: 960x400
Аудиокодек: AC3 5.1
Битрейт аудио: 256 Kbps

MediaInfo

General
Unique ID : 178059340168485632091015456323066393599 (0x85F4FB444B3BDF039B0BD1810673F3FF)
Complete name : Девятые врата.mkv
Format : Matroska
Format version : Version 4 / Version 2
File size : 2.12 GiB
Duration : 2h 13mn
Overall bit rate : 2 277 Kbps
Movie name : Девятые врата (rip by smithland)
Encoded date : UTC 2010-02-22 21:41:31
Writing application : mkvmerge v5.9.0 ('On The Loose')
Writing library : libebml v1.3.0 + libmatroska v1.4.0
Attachment : Yes
Video
ID : 1
Format : AVC
Format/Info : Advanced Video Codec
Format profile : High@L3.1
Format settings, CABAC : Yes
Format settings, ReFrames : 12 frames
Codec ID : V_MPEG4/ISO/AVC
Duration : 2h 13mn
Bit rate : 2 000 Kbps
Width : 960 pixels
Height : 400 pixels
Display aspect ratio : 2.40:1
Frame rate mode : Constant
Frame rate : 23.976 fps
Color space : YUV
Chroma subsampling : 4:2:0
Bit depth : 8 bits
Scan type : Progressive
Bits/(Pixel*Frame) : 0.217
Stream size : 1.84 GiB (87%)
Writing library : x264 core 120
Encoding settings : cabac=1 / ref=12 / deblock=1:-1:0 / analyse=0x3:0x133 / me=umh / subme=9 / psy=1 / psy_rd=1.00:0.50 / mixed_ref=1 / me_range=24 / chroma_me=1 / trellis=1 / 8x8dct=1 / cqm=0 / deadzone=21,11 / fast_pskip=1 / chroma_qp_offset=-4 / threads=12 / sliced_threads=0 / nr=0 / decimate=0 / interlaced=0 / bluray_compat=0 / constrained_intra=0 / bframes=6 / b_pyramid=2 / b_adapt=1 / b_bias=0 / direct=1 / weightb=1 / open_gop=0 / weightp=2 / keyint=240 / keyint_min=24 / scenecut=40 / intra_refresh=0 / rc_lookahead=50 / rc=abr / mbtree=1 / bitrate=2000 / ratetol=1.0 / qcomp=0.60 / qpmin=3 / qpmax=69 / qpstep=4 / ip_ratio=1.40 / aq=1:1.00
Language : Russian
Default : Yes
Forced : Yes
Color primaries : BT.709
Transfer characteristics : BT.709
Matrix coefficients : BT.709
Audio
ID : 2
Format : AC-3
Format/Info : Audio Coding 3
Mode extension : CM (complete main)
Format settings, Endianness : Big
Codec ID : A_AC3
Duration : 2h 13mn
Bit rate mode : Constant
Bit rate : 256 Kbps
Channel(s) : 6 channels
Channel positions : Front: L C R, Side: L R, LFE
Sampling rate : 48.0 KHz
Bit depth : 16 bits
Compression mode : Lossy
Stream size : 244 MiB (11%)
Language : Russian
Default : Yes
Forced : Yes
Menu
00:00:00.000 : en:Chapter 2
00:00:30.113 : en:Chapter 3
00:09:45.001 : en:Chapter 4
00:18:08.670 : en:Chapter 5
00:22:41.735 : en:Chapter 6
00:32:16.225 : en:Chapter 7
00:37:34.168 : en:Chapter 8
00:44:55.859 : en:Chapter 9
00:53:44.846 : en:Chapter 10
01:02:16.232 : en:Chapter 11
01:10:30.017 : en:Chapter 12
01:21:04.276 : en:Chapter 13
01:28:07.240 : en:Chapter 14
01:34:32.875 : en:Chapter 15
01:42:53.667 : en:Chapter 16
01:51:42.696 : en:Chapter 17
02:05:30.814 : en:Chapter 18
02:13:14.152 : en:Chapter 19
Скриншоты:


Время раздачи: 12:00-22:00 МСК

[Цитировать]



Показать сообщения:    

Текущее время: 10-Дек 15:47

Часовой пояс: UTC + 3


Вы не можете начинать темы
Вы не можете отвечать на сообщения
Вы не можете редактировать свои сообщения
Вы не можете удалять свои сообщения
Вы не можете голосовать в опросах
Вы не можете прикреплять файлы к сообщениям
Вы не можете скачивать файлы

!ВНИМАНИЕ!
Сайт не предоставляет электронные версии произведений, а занимается лишь коллекционированием и каталогизацией ссылок, присылаемых и публикуемых на форуме нашими читателями. Если вы являетесь правообладателем какого-либо представленного материала и не желаете, чтобы ссылка на него находилась в нашем каталоге, свяжитесь с нами, и мы незамедлительно удалим ее. Файлы для обмена на трекере предоставлены пользователями сайта, и администрация не несет ответственности за их содержание. Просьба не заливать файлы, защищенные авторскими правами, а также файлы нелегального содержания!