[ Сегодня идет свободное скачивание без начисления Download ]


Статистика раздачи
Нет
 
   
 
Top  
 
 
Обливион / Oblivion«Earth is a memory worth fighting for.» Год выпуска: 2013
Страна: США
Производство: Universal Pictures, Chernin Entertainment, Ironhead Studios
Жанр: Фантастика, Триллер, Приключения
Режиссер: Джозеф Косински
В ролях: Том Круз, Ольга Куриленко, Морган Фриман, Андреа Райзборо, Николай Костер-Вальдау, Мелисса Лео, Зои Белл, Эбигейл Лоу, Изабель Лоу, Дэвид Мэдисон
Перевод: Дубдированный[Чистый звук]
Субтитры: Отсутствуют
Описание: Можно ли скучать по месту, в котором никогда не был, мечтать о девушке, которую никогда не видел? Добро пожаловать в будущее! Мы больше не можем называть Землю своим домом. Мы выиграли войну, но не смогли сохранить планету…

Качество: HDRip
Продолжительность: 02:04:42
Формат: AVI
Видео кодек: XviD
Аудио кодек: AC3
Видео: 720x304 (2,35:1), 23,976 fps, XviD ~1220 kbps avg, 0.232 bit/pixel
Аудио: 48.0 kHz, AC3, 6 ch, ~448 Kbps avg
Премьера (мир): 10 апреля 2013
Премьера (РФ): 11 апреля 2013, «UPI»

Media Info

General
Complete name                  : D:\ФиЛьМы\Oblivion.2013.D_HDRip.avi
Format                         : AVI
Format/Info                    : Audio Video Interleave
File size                      : 1.46 GiB
Duration                       : 2h 4mn
Overall bit rate               : 1 677 Kbps
Writing application            : VirtualDubMod 1.5.10.2 (build 2540/release)
Writing library                : VirtualDubMod build 2540/release
Video
ID                             : 0
Format                         : MPEG-4 Visual
Format profile                 : Advanced Simple@L5
Format settings, BVOP          : 2
Format settings, QPel          : No
Format settings, GMC           : No warppoints
Format settings, Matrix        : Default (MPEG)
Codec ID                       : XVID
Codec ID/Hint                  : XviD
Duration                       : 2h 4mn
Bit rate                       : 1 220 Kbps
Width                          : 720 pixels
Height                         : 304 pixels
Display aspect ratio           : 2.35:1
Frame rate                     : 23.976 fps
Color space                    : YUV
Chroma subsampling             : 4:2:0
Bit depth                      : 8 bits
Scan type                      : Progressive
Compression mode               : Lossy
Bits/(Pixel*Frame)             : 0.232
Stream size                    : 1.06 GiB (73%)
Writing library                : XviD 1.2.1 (UTC 2008-12-04)
Audio
ID                             : 1
Format                         : AC-3
Format/Info                    : Audio Coding 3
Mode extension                 : CM (complete main)
Format settings, Endianness    : Big
Codec ID                       : 2000
Duration                       : 2h 4mn
Bit rate mode                  : Constant
Bit rate                       : 448 Kbps
Channel(s)                     : 6 channels
Channel positions              : Front: L C R, Side: L R, LFE
Sampling rate                  : 48.0 KHz
Bit depth                      : 16 bits
Compression mode               : Lossy
Stream size                    : 400 MiB (27%)
Alignment                      : Split accross interleaves
Interleave, duration           : 42 ms (1.00 video frame)
Interleave, preload duration   : 500 ms
:

Скриншоты

[Цитировать]



Показать сообщения:    

Текущее время: 07-Дек 19:24

Часовой пояс: UTC + 3


Вы не можете начинать темы
Вы не можете отвечать на сообщения
Вы не можете редактировать свои сообщения
Вы не можете удалять свои сообщения
Вы не можете голосовать в опросах
Вы не можете прикреплять файлы к сообщениям
Вы не можете скачивать файлы

!ВНИМАНИЕ!
Сайт не предоставляет электронные версии произведений, а занимается лишь коллекционированием и каталогизацией ссылок, присылаемых и публикуемых на форуме нашими читателями. Если вы являетесь правообладателем какого-либо представленного материала и не желаете, чтобы ссылка на него находилась в нашем каталоге, свяжитесь с нами, и мы незамедлительно удалим ее. Файлы для обмена на трекере предоставлены пользователями сайта, и администрация не несет ответственности за их содержание. Просьба не заливать файлы, защищенные авторскими правами, а также файлы нелегального содержания!