[ Сегодня идет свободное скачивание без начисления Download ]


Статистика раздачи
Нет
 
   
 
 
 
-Обливион / Oblivion (2013) BDRip«Earth is a memory worth fighting for.»- Год выпуска: 2013
Производство: США / Universal Pictures, Chernin Entertainment, Ironhead Studios
Жанр: Фантастика, Боевик, Триллер, Приключения, Мелодрама
Перевод: Дублированное [Чистый звук]
Субтитры: Вшитые отключаемые
Язык субтитров: Aнглийский
Дата мировой премьеры: 10 апреля 2013
Дата российской премьеры: 11 апреля 2013, «UPI»
Дата выхода DVD релиза: 22 августа 2013, «Двадцатый Век Фокс СНГ»
Дата выхода Blu-Ray релиза: 22 августа 2013, «Двадцатый Век Фокс СНГ»
Режиссер: Джозеф Косински
Продюсер: Питер Чернин, Дилан Кларк, Дункан Хендерсон
Актеры: Том Круз, Ольга Куриленко, Морган Фримен, Андреа Райзборо, Николай Костер-Валдау, Мелисса Лео, Зои Белл, Эбигейл Лоу, Изабель Лоу, Дэвид Мэдисон
Описание фильма:
Можно ли скучать по месту, в котором никогда не был, мечтать о девушке, которую никогда не видел? Добро пожаловать в будущее! Мы больше не можем называть Землю своим домом. Мы выиграли войну, но не смогли сохранить планету…

Продолжительность: 02:04:42
Качество видео: BDRip 720p
Видеокодек: MPEG-4 AVC/H.264
Битрейт видео: ~4760 Kbit/s
Размер кадра: 1280 x 536
Аудио #1: AC3, 48,0 КHz, 5.1, 448 Kbit/s - Русский
Аудио #2: DTS, 48,0 КHz, 5.1, 1510 Kbit/s - Aнглийский
Cохранены оригинальные чаптеры как на Blu-ray.

MediaInfo

Общее
Уникальный идентификатор : 249665271455537230487021231365298324371 (0xBBD3C840AEC138BF82F3F694B6B00393)
Полное имя : D:\Торренты\ФИЛЬМЫ торента\Обливион.2013.BDRip.720p.mkv
Формат : Matroska
Размер файла : 5,85 Гбайт
Продолжительность : 2 ч. 4 м.
Общий поток : 6715 Кбит/сек
Дата кодирования : UTC 2013-07-23 09:28:59
Программа кодирования : mkvmerge v5.7.0 ('The Whirlwind') built on Jul 8 2012 20:08:51
Библиотека кодирования : libebml v1.2.3 + libmatroska v1.3.0
Видео
Идентификатор : 1
Формат : AVC
Формат/Информация : Advanced Video Codec
Профиль формата : High@L4.1
Параметр CABAC формата : Да
Параметр ReFrames формата : 5 кадров
Режим смешивания : Header stripping
Идентификатор кодека : V_MPEG4/ISO/AVC
Продолжительность : 2 ч. 4 м.
Битрейт : 4760 Кбит/сек
Ширина : 1280 пикс.
Высота : 536 пикс.
Соотношение сторон : 2,35:1
Частота кадров : 23,976 кадр/сек
Цветовое пространство : YUV
Подвыборка цветности : 4:2:0
Битовая глубина : 8 бит
Тип развёртки : Прогрессивная
Бит/(Пиксели*Кадры) : 0.289
Размер потока : 4,03 Гбайт (69%)
Библиотека кодирования : x264 core 133 r2334 a3ac64b
Настройки программы : cabac=1 / ref=5 / deblock=1:0:0 / analyse=0x3:0x133 / me=umh / subme=7 / psy=1 / psy_rd=1.00:0.00 / mixed_ref=1 / me_range=16 / chroma_me=1 / trellis=1 / 8x8dct=1 / cqm=0 / deadzone=21,11 / fast_pskip=0 / chroma_qp_offset=-2 / threads=18 / lookahead_threads=3 / sliced_threads=0 / nr=0 / decimate=1 / interlaced=0 / bluray_compat=0 / constrained_intra=0 / bframes=3 / b_pyramid=2 / b_adapt=1 / b_bias=0 / direct=1 / weightb=1 / open_gop=0 / weightp=2 / keyint=250 / keyint_min=23 / scenecut=40 / intra_refresh=0 / rc_lookahead=40 / rc=2pass / mbtree=1 / bitrate=4760 / ratetol=1.0 / qcomp=0.60 / qpmin=0 / qpmax=69 / qpstep=4 / cplxblur=20.0 / qblur=0.5 / ip_ratio=1.40 / aq=1:1.00
Язык : English
Аудио #1
Идентификатор : 2
Формат : AC-3
Формат/Информация : Audio Coding 3
Расширение режима : CM (complete main)
Режим смешивания : Header stripping
Идентификатор кодека : A_AC3
Продолжительность : 2 ч. 4 м.
Вид битрейта : Постоянный
Битрейт : 448 Кбит/сек
Каналы : 6 каналов
Расположение каналов : Front: L C R, Side: L R, LFE
Частота : 48,0 КГц
Битовая глубина : 16 бит
Метод сжатия : С потерями
Размер потока : 400 Мбайт (7%)
Аудио #2
Идентификатор : 3
Формат : DTS
Формат/Информация : Digital Theater Systems
Режим смешивания : Header stripping
Идентификатор кодека : A_DTS
Продолжительность : 2 ч. 4 м.
Вид битрейта : Постоянный
Битрейт : 1510 Кбит/сек
Каналы : 6 каналов
Расположение каналов : Front: L C R, Side: L R, LFE
Частота : 48,0 КГц
Битовая глубина : 24 бит
Метод сжатия : С потерями
Размер потока : 1,32 Гбайт (22%)
Язык : English
Текст
Идентификатор : 4
Формат : UTF-8
Идентификатор кодека : S_TEXT/UTF8
Идентификатор кодека/Информация : UTF-8 Plain Text
Язык : English
Меню
00:00:00.000 : en:00:00:00.000
00:04:31.354 : en:00:04:31.354
00:12:51.813 : en:00:12:51.813
00:21:25.284 : en:00:21:25.284
00:27:20.138 : en:00:27:20.138
00:35:30.337 : en:00:35:30.337
00:40:06.779 : en:00:40:06.779
00:46:16.023 : en:00:46:16.023
00:52:22.181 : en:00:52:22.181
01:01:59.716 : en:01:01:59.716
01:07:59.409 : en:01:07:59.409
01:16:25.831 : en:01:16:25.831
01:22:08.173 : en:01:22:08.173
01:25:31.752 : en:01:25:31.752
01:30:22.542 : en:01:30:22.542
01:36:30.368 : en:01:36:30.368
01:40:29.106 : en:01:40:29.106
01:46:27.423 : en:01:46:27.423
01:53:05.320 : en:01:53:05.320
01:58:23.847 : en:01:58:23.847
Скриншоты:
Время раздачи: 24/7 по возможности

[Цитировать]



Показать сообщения:    

Текущее время: 10-Дек 19:33

Часовой пояс: UTC + 3


Вы не можете начинать темы
Вы не можете отвечать на сообщения
Вы не можете редактировать свои сообщения
Вы не можете удалять свои сообщения
Вы не можете голосовать в опросах
Вы не можете прикреплять файлы к сообщениям
Вы не можете скачивать файлы

!ВНИМАНИЕ!
Сайт не предоставляет электронные версии произведений, а занимается лишь коллекционированием и каталогизацией ссылок, присылаемых и публикуемых на форуме нашими читателями. Если вы являетесь правообладателем какого-либо представленного материала и не желаете, чтобы ссылка на него находилась в нашем каталоге, свяжитесь с нами, и мы незамедлительно удалим ее. Файлы для обмена на трекере предоставлены пользователями сайта, и администрация не несет ответственности за их содержание. Просьба не заливать файлы, защищенные авторскими правами, а также файлы нелегального содержания!