[ Сегодня идет свободное скачивание без начисления Download ]


Статистика раздачи
Нет
 
   
 
Top  
 
 
Судная ночь / The Purge
Страна: США, Франция
Жанр: триллер, ужасы
Год выпуска: 2013
Продолжительность: 01:25:11
Слоган: «Одну ночь в году дозволено все. Главное - дожить до рассвета»
Перевод: Профессиональный (дублированный)
Cубтитры: нет
Режиссер: Джеймс ДеМонако
В ролях: Итан Хоук, Лина Хиди, Макс Буркхолдер, Аделаида Кэйн, Эдвин Ходж, Риз Уэйкфилд, Тони Оллер, Ария Барейкис, Том Йи, Крис Малки
Описание: Мир будущего — мир без преступности… безработицы… войн. И все это благодаря одной ночи в году, когда можно отправить на тот свет любого — злобного босса, шумных соседей, надоевших родственников. В Судную ночь дозволено все — главное дожить до рассвета.

Релиз от: by MachoSergio
Качество видео: WEB-DL 720p
Формат видео: MKV
Видео: 1280x532 at 23.976 fps, MPEG-4 AVC, ~3862 kbps avg
Аудио: Russian: 48 kHz, AC3, 3/2 (L,C,R,l,r) + LFE ch, ~384.00 kbps avg |Дубляж, iTunes Russia|

Скриншоты

MediaInfo

General
Unique ID : 182453125747412443890512488665201339856 (0x8943319F000735EDBD90F5514D456DD0)
Complete name : D:\DowNLoaD\The.Purge.2013.720p.WEB-DL.Rus.HDCLUB.mkv
Format : Matroska
Format version : Version 2
File size : 2.58 GiB
Duration : 1h 25mn
Overall bit rate : 4 332 Kbps
Movie name : The Purge (2013) - Release for HDCLUB
Encoded date : UTC 2013-07-23 21:00:23
Writing application : mkvmerge v3.4.0 ('Rapunzel') built on May 15 2010 09:38:20
Writing library : libebml v0.8.0 + libmatroska v0.9.0
Video
ID : 1
Format : AVC
Format/Info : Advanced Video Codec
Format profile : Main@L3.1
Format settings, CABAC : No
Format settings, ReFrames : 2 frames
Codec ID : V_MPEG4/ISO/AVC
Duration : 1h 25mn
Bit rate : 3 862 Kbps
Width : 1 280 pixels
Height : 532 pixels
Display aspect ratio : 2.40:1
Frame rate mode : Constant
Frame rate : 23.976 fps
Color space : YUV
Chroma subsampling : 4:2:0
Bit depth : 8 bits
Scan type : Progressive
Bits/(Pixel*Frame) : 0.237
Stream size : 2.30 GiB (89%)
Title : The Purge (2013) - Release for HDCLUB
Language : English
Default : Yes
Forced : No
Color primaries : BT.709
Transfer characteristics : BT.709
Matrix coefficients : BT.709
Audio
ID : 2
Format : AC-3
Format/Info : Audio Coding 3
Mode extension : CM (complete main)
Format settings, Endianness : Big
Codec ID : A_AC3
Duration : 1h 25mn
Bit rate mode : Constant
Bit rate : 384 Kbps
Channel(s) : 6 channels
Channel positions : Front: L C R, Side: L R, LFE
Sampling rate : 48.0 KHz
Bit depth : 16 bits
Compression mode : Lossy
Stream size : 234 MiB (9%)
Title : AC3 5.1 @ 384 kbps - DUB
Language : Russian
Default : Yes
Forced : No
Menu
00:00:00.000 : en:глава 1
00:04:32.000 : en:глава 2
00:07:26.000 : en:глава 3
00:13:50.000 : en:глава 4
00:18:26.000 : en:глава 5
00:23:13.000 : en:глава 6
00:28:15.000 : en:глава 7
00:31:35.000 : en:глава 8
00:35:44.000 : en:глава 9
00:39:30.000 : en:глава 10
00:44:39.000 : en:глава 11
00:47:55.000 : en:глава 12
00:50:35.000 : en:глава 13
00:56:04.000 : en:глава 14
01:00:22.000 : en:глава 15
01:03:37.000 : en:глава 16
01:07:11.000 : en:глава 17
01:11:11.000 : en:глава 18
01:16:03.000 : en:глава 19
01:19:28.000 : en:глава 20

[Цитировать]

Топик был перенесен из форума Новинки кинопроката (HD Video) в форум Зарубежное кино (HD Video)
Bootch



Показать сообщения:    

Текущее время: 08-Дек 17:16

Часовой пояс: UTC + 3


Вы не можете начинать темы
Вы не можете отвечать на сообщения
Вы не можете редактировать свои сообщения
Вы не можете удалять свои сообщения
Вы не можете голосовать в опросах
Вы не можете прикреплять файлы к сообщениям
Вы не можете скачивать файлы

!ВНИМАНИЕ!
Сайт не предоставляет электронные версии произведений, а занимается лишь коллекционированием и каталогизацией ссылок, присылаемых и публикуемых на форуме нашими читателями. Если вы являетесь правообладателем какого-либо представленного материала и не желаете, чтобы ссылка на него находилась в нашем каталоге, свяжитесь с нами, и мы незамедлительно удалим ее. Файлы для обмена на трекере предоставлены пользователями сайта, и администрация не несет ответственности за их содержание. Просьба не заливать файлы, защищенные авторскими правами, а также файлы нелегального содержания!