[ Сегодня идет свободное скачивание без начисления Download ]


Статистика раздачи
Нет
 
   
 
Top  
 
 
-Трудный возраст / Girl in Progress (2012) DVDRip«A tale of acting up, acting out, and acting your age.»- Год выпуска: 2012
Производство: США, Anxiety Productions, Latitude Entertainment, Pantelion Films
Жанр: Драма, Комедия
Описание фильма:
Грейс — мать одиночка. Она слишком занята разрываемая работой, счетами, и женатым доктором Хартфордом, чтобы дать ее дочери, внимание, в котором она сильно нуждается. Когда учитель английского языка дочери, г-жа Армстронг, знакомит своих учеников с классическими историями скорого совершеннолетия, дочка Грейс вдохновляется, чтобы продолжить свою жизнь без мамы. В то время, когда Грейс озабочена растущей привязанностью своего сотрудника, ее дочка заручается поддержкой своей верной подруги Тавиты, чтобы помочь ей в ее коротком пути к «взрослой жизни». Но Грейс и ее дочь должны понять, что взросление означает вести себя соответственно возрасту.
Режиссер: Патрисия Ригген
Актеры: Ева Мендес, Мэтью Модайн, Лэндон Либуарон, Патриция Аркетт, Рэйни Родригез, Расселл Питерс, Эудженио Дербез, Ричард Хэрмон, Бренна О’Брайэн, Майкл П. Норти
Продолжительность: 01:31:13
Качество видео: DVDRip
Перевод: Любительский (одноголосый) [D-speaker]
Субтитры: Отсутствуют

Дата мировой премьеры: 27 апреля 2012
Видеокодек: Xvid
Битрейт видео: ~1683 Kbit/s
Размер кадра: 720 x 304
Аудиокодек: AC3 2.0
Битрейт аудио: 448 Kbit/s

MediaInfo

Общее
Полное имя : D:\Торренты\ФИЛЬМЫ торента\Трудный возраст.2012.DVDRip.avi
Формат : AVI
Формат/Информация : Audio Video Interleave
Размер файла : 1,36 Гбайт
Продолжительность : 1 ч. 31 м.
Общий поток : 2141 Кбит/сек
Программа кодирования : VirtualDubMod 1.5.10.2 (build 2542/release)
Библиотека кодирования : VirtualDubMod build 2542/release
Видео
Идентификатор : 0
Формат : MPEG-4 Visual
Профиль формата : [email protected]
Параметр BVOP формата : Нет
Параметр QPel формата : Нет
Параметр GMC формата : Без точки перехода
Параметр матрицы формата : Default (H.263)
Идентификатор кодека : XVID
Идентификатор кодека/Подсказка : XviD
Продолжительность : 1 ч. 31 м.
Битрейт : 1683 Кбит/сек
Ширина : 720 пикс.
Высота : 304 пикс.
Соотношение сторон : 2,35:1
Частота кадров : 23,976 кадр/сек
Цветовое пространство : YUV
Подвыборка цветности : 4:2:0
Битовая глубина : 8 бит
Тип развёртки : Прогрессивная
Метод сжатия : С потерями
Бит/(Пиксели*Кадры) : 0.321
Размер потока : 1,07 Гбайт (79%)
Библиотека кодирования : XviD 64
Аудио
Идентификатор : 1
Формат : AC-3
Формат/Информация : Audio Coding 3
Расширение режима : CM (complete main)
Идентификатор кодека : 2000
Продолжительность : 1 ч. 31 м.
Вид битрейта : Постоянный
Битрейт : 448 Кбит/сек
Каналы : 2 канала
Расположение каналов : Front: L R
Частота : 48,0 КГц
Битовая глубина : 16 бит
Метод сжатия : С потерями
Размер потока : 292 Мбайт (21%)
Выравнивание : Разделение по промежуткам
Продолжительность промежутка : 42 мс. (1,00 видеокадр)
Время предзагрузки промежутка : 500 ms
Скриншоты:
Время раздачи: 24/7 по возможности

[Цитировать]



Показать сообщения:    

Текущее время: 04-Дек 13:13

Часовой пояс: UTC + 3


Вы не можете начинать темы
Вы не можете отвечать на сообщения
Вы не можете редактировать свои сообщения
Вы не можете удалять свои сообщения
Вы не можете голосовать в опросах
Вы не можете прикреплять файлы к сообщениям
Вы не можете скачивать файлы

!ВНИМАНИЕ!
Сайт не предоставляет электронные версии произведений, а занимается лишь коллекционированием и каталогизацией ссылок, присылаемых и публикуемых на форуме нашими читателями. Если вы являетесь правообладателем какого-либо представленного материала и не желаете, чтобы ссылка на него находилась в нашем каталоге, свяжитесь с нами, и мы незамедлительно удалим ее. Файлы для обмена на трекере предоставлены пользователями сайта, и администрация не несет ответственности за их содержание. Просьба не заливать файлы, защищенные авторскими правами, а также файлы нелегального содержания!