[ Сегодня идет свободное скачивание без начисления Download ]


Статистика раздачи
Нет
 
   
 
Top  
 
 
-Пес - призрак: путь самурая. / Ghost Dog (1999) HDTVRip [720p] - Год выпуска: 1999
Жанр: Боевик, Криминал, Драма
Описание фильма:
«Пес-призрак» — загадочный воин, подчинивший свою жизнь древним законам чести Самураев. Он безропотно служит своему хозяину, когда-то спасшему ему жизнь. Презирая опасность и не думая о собственной судьбе, таинственный убийца-одиночка убирает с дороги врагов своего господина.
Режиссер: Джим Джармуш
Актеры: Форест Уитакер, Джин Руффини, Джон Торми, Триша Весси, Ричард Портноу, Камилла Уинбуш, Генри Сильва, Исаак Де Банколе, Виктор Арго, Клифф Гормен
Продолжительность: 01:56:07
Качество видео: HDTVRip-AVC
Перевод: Многоголосый закадровый

Видеокодек: AVC
Битрейт видео: ~2525 Kb\s
Размер кадра: 1280x720
Аудиокодек: AC3
Битрейт аудио: 384 Kb\s
Аудио 1: AC3 5.1 384Kb\s Русский многоголосый
Аудио 2: AC3 5.1 256Kb\s Русский Гаврилов
Аудио 3: AC3 5.1 256Kb\s Английский оригинал
Скриншоты:

MI

Общее
Уникальный идентификатор : 189777621675959748044867225050133467586 (0x8EC5D726D0D9207EB1BAD5CAF53691C2)
Полное имя : F:\Movie\Ghost.Dog.mkv
Формат : Matroska
Версия формата : Version 1
Размер файла : 2,76 Гбайт
Продолжительность : 1 ч. 56 м.
Общий поток : 3401 Кбит/сек
Дата кодирования : UTC 2009-11-04 07:27:22
Программа кодирования : mkvmerge v2.4.0 ('Fumbling Towards Ecstasy') built on Oct 11 2008 20:13:15
Библиотека кодирования : libebml v0.7.7 + libmatroska v0.8.1
Видео
Идентификатор : 1
Формат : AVC
Формат/Информация : Advanced Video Codec
Профиль формата : High@L3.1
Параметр CABAC формата : Да
Параметр ReFrames формата : 2 кадра
Идентификатор кодека : V_MPEG4/ISO/AVC
Продолжительность : 1 ч. 56 м.
Битрейт : 2525 Кбит/сек
Ширина : 1280 пикселей
Высота : 720 пикселей
Соотношение сторон : 16:9
Режим частоты кадров : Постоянный
Частота кадров : 23,976 кадра/сек
Цветовое пространство : YUV
Субдискретизация насыщенности : 4:2:0
Битовая глубина : 8 бит
Тип развёртки : Прогрессивная
Бит/(Пиксели*Кадры) : 0.114
Размер потока : 1,98 Гбайт (72%)
Библиотека кодирования : x264 core 68 r1183M f21daff
Настройки программы : cabac=1 / ref=1 / deblock=1:0:0 / analyse=0x3:0x3 / me=dia / subme=1 / psy_rd=0.0:0.0 / mixed_ref=0 / me_range=16 / chroma_me=1 / trellis=0 / 8x8dct=1 / cqm=0 / deadzone=21,11 / chroma_qp_offset=0 / threads=3 / nr=0 / decimate=1 / mbaff=0 / bframes=3 / b_pyramid=0 / b_adapt=1 / b_bias=0 / direct=1 / wpredb=1 / keyint=250 / keyint_min=25 / scenecut=40 / rc=abr / bitrate=2525 / ratetol=1.0 / qcomp=0.60 / qpmin=10 / qpmax=51 / qpstep=4 / ip_ratio=1.40 / pb_ratio=1.30 / aq=1:1.00
Язык : English
Default : Да
Forced : Нет
Аудио #1
Идентификатор : 2
Формат : AC-3
Формат/Информация : Audio Coding 3
Расширение режима : CM (complete main)
Параметр Endianness формата : Big
Идентификатор кодека : A_AC3
Продолжительность : 1 ч. 56 м.
Вид битрейта : Постоянный
Битрейт : 384 Кбит/сек
Каналы : 6 каналов
Расположение каналов : Front: L C R, Side: L R, LFE
Частота : 48,0 КГц
Битовая глубина : 16 бит
Метод сжатия : С потерями
Задержка видео : 6 мс.
Размер потока : 319 Мбайт (11%)
Заголовок : MVO
Язык : Russian
Default : Да
Forced : Нет
Аудио #2
Идентификатор : 3
Формат : AC-3
Формат/Информация : Audio Coding 3
Расширение режима : CM (complete main)
Параметр Endianness формата : Big
Идентификатор кодека : A_AC3
Продолжительность : 1 ч. 56 м.
Вид битрейта : Постоянный
Битрейт : 256 Кбит/сек
Каналы : 6 каналов
Расположение каналов : Front: L C R, Side: L R, LFE
Частота : 48,0 КГц
Битовая глубина : 16 бит
Метод сжатия : С потерями
Задержка видео : 6 мс.
Размер потока : 213 Мбайт (8%)
Заголовок : Goblin
Язык : Russian
Default : Нет
Forced : Нет
Аудио #3
Идентификатор : 4
Формат : AC-3
Формат/Информация : Audio Coding 3
Расширение режима : CM (complete main)
Параметр Endianness формата : Big
Идентификатор кодека : A_AC3
Продолжительность : 1 ч. 56 м.
Вид битрейта : Постоянный
Битрейт : 256 Кбит/сек
Каналы : 6 каналов
Расположение каналов : Front: L C R, Side: L R, LFE
Частота : 48,0 КГц
Битовая глубина : 16 бит
Метод сжатия : С потерями
Задержка видео : 6 мс.
Размер потока : 213 Мбайт (8%)
Заголовок : Original
Язык : English
Default : Нет
Forced : Нет

Это интересно

* Персонажа «Никто» играет Гари Фармер. Фармер также играл одноимённого персонажа в фильме «Мертвец» (1995). Причем произносит он ту же фразу: «Тупой белый ублюдок» («Stupid fucking white man»).
* Сцена, в которой Пёс-призрак стреляет в ганстера через водопроводную трубу была взята из фильма Сейдзюн Судзуки «Koroshi no rakuin» (1967).
* Клуб, к которому Пёс-призрак подъезжает перед тем, как украсть одежду, называется «Liquid Sword». «Liquid Swords» — также название первого альбома GZA, который продюсировал The RZA, который также написал оригинальную звуковую дорожку к фильму и сыграл одетого в камуфляж самурая в финале.
* У Пса-призрака и Луи различаются воспоминания об их первой встрече. Это ссылка на фильм «Расёмон» Акиры Куросавы (1950), в котором люди дают различные версии одного и того же события.
* Цитаты в фильме взяты из книги «Hagakure: The Way of the Samurai» Yamamoto Tsunetomo.
* Каждый раз, когда Пёс-призрак садится в машину, он включает музыку и устанавливает громкость на 21.
* Пёс-призрак стреляет сначала в живот Фрэнка, затем в грудную клетку, а потом в голову. Эти выстрелы напоминают сэппуку, японское ритуальное самоубийство, во время которого первый удар ножом или мечом осуществляется по животу, второй — по груди, а потом самоубийца опускает голову — и помощник его обезглавливает.
* Героиня несколько раз в автомобиле смотрит мультфильм «Шоу Щекотки и Царапки», который является «внутренним» мульфильмом сериала «Симпсоны» и никогда не был отдельным произведением.
* Когда Пес-Призрак разговаривает с бандитами, он говорит что его зовут «Боб Соло» - это комбинация из имён двух персонажей, которых играл Гаррисон Форд: «Боб Фальфа» (из «Американских Граффити») и «Хан Соло» (из «Звездных Войн»).
Время раздачи: 24/7

[Цитировать]



Показать сообщения:    

Текущее время: 07-Дек 15:37

Часовой пояс: UTC + 3


Вы не можете начинать темы
Вы не можете отвечать на сообщения
Вы не можете редактировать свои сообщения
Вы не можете удалять свои сообщения
Вы не можете голосовать в опросах
Вы не можете прикреплять файлы к сообщениям
Вы не можете скачивать файлы

!ВНИМАНИЕ!
Сайт не предоставляет электронные версии произведений, а занимается лишь коллекционированием и каталогизацией ссылок, присылаемых и публикуемых на форуме нашими читателями. Если вы являетесь правообладателем какого-либо представленного материала и не желаете, чтобы ссылка на него находилась в нашем каталоге, свяжитесь с нами, и мы незамедлительно удалим ее. Файлы для обмена на трекере предоставлены пользователями сайта, и администрация не несет ответственности за их содержание. Просьба не заливать файлы, защищенные авторскими правами, а также файлы нелегального содержания!