[ Сегодня идет свободное скачивание без начисления Download ]


Статистика раздачи
Нет
 
   
 
Top  
 
 
Джон Картер / John Carter Страна: США
Студия: Walt Disney Pictures
Жанр: фантастика, фэнтези, боевик, приключения
Год выпуска: 2012
Продолжительность: 02:12:01
Перевод 1: Профессиональный (дублированный)Blu-ray EUR
Перевод 2: Авторский (одноголосый закадровый)Гаврилов
Cубтитры: Russian (Forced, Full,voronine (с правками по дубляжу), Commentary), Ukrainian (Forced, Full, Commentary), English (Forced, Full, Commentary)
Оригинальная аудиодорожка: английский
Режиссер: Эндрю Стэнтон / Andrew Stanton
В ролях: Тейлор Китч, Линн Коллинз, Саманта Мортон, Уиллем Дефо, Томас Хейден Чёрч, Марк Стронг, Кирен Хайдз, Доминик Уэст, Джеймс Пьюрфой, Брайан Крэнстон
Описание: Ветеран Гражданской войны в США Джон Картер против своей воли оказывается на Марсе, где попадает в плен к воинственным четырехметровым туземцам. Картеру предстоит не только спастись самому, но и спасти принцессу Дею Торис с Гелиума.

Тип релиза: BDRip 1080p[DON]
Контейнер: MKV
Видео: AVC,1920x800, 12000 Kbps, 23.976 fps
Аудио 1: Russian: 48 kHz, AC3, 3/2 (L,C,R,l,r) + LFE ch, ~640.00 kbps | Blu-ray EUR|
Аудио 2: Ukrainian: 48 kHz, AC3, 3/2 (L,C,R,l,r) + LFE ch, ~640.00 kbps | Blu-ray EUR|
Аудио 3: Russian: 48 kHz, DTS, 3/2 (L,C,R,l,r) + LFE ch, ~1536.00 kbps | Гаврилов|
Аудио 4: English: 48 kHz, DTS, 3/2 (L,C,R,l,r) + LFE ch, ~1536.00 kbps |Original|
Аудио 5: English: 48 kHz, AC3, 2/0 (L,R) ch, ~320.00 kbps avg |Commentary|
Чаптеры:есть

MediaInfo

General
Unique ID : 217780313218750388248883229078587046946 (0xA3D6F67066A42D20A039E895EDD9FC22)
Complete name : D:\Рипы\John.Carter.2011.1080p.Bluray.DTS x264-Talian-.mkv
Format : Matroska
Format version : Version 2
File size : 15.3 GiB
Duration : 2h 12mn
Overall bit rate : 16.6 Mbps
Movie name : -Talian-
Encoded date : UTC 2013-07-24 17:05:11
Writing application : mkvmerge v5.7.0 ('The Whirlwind') built on Jul 8 2012 20:08:51
Writing library : libebml v1.2.3 + libmatroska v1.3.0
Video
ID : 1
Format : AVC
Format/Info : Advanced Video Codec
Format profile : High@L4.1
Format settings, CABAC : Yes
Format settings, ReFrames : 5 frames
Codec ID : V_MPEG4/ISO/AVC
Duration : 2h 12mn
Bit rate : 12.0 Mbps
Width : 1 920 pixels
Height : 800 pixels
Display aspect ratio : 2.40:1
Frame rate : 23.976 fps
Color space : YUV
Chroma subsampling : 4:2:0
Bit depth : 8 bits
Scan type : Progressive
Bits/(Pixel*Frame) : 0.326
Stream size : 10.8 GiB (70%)
Title : DON
Writing library : x264 core 116 r2057 0ba8a9c
Encoding settings : cabac=1 / ref=5 / deblock=1:-3:-3 / analyse=0x3:0x133 / me=tesa / subme=10 / psy=1 / psy_rd=1.00:0.00 / mixed_ref=1 / me_range=32 / chroma_me=1 / trellis=2 / 8x8dct=1 / cqm=0 / deadzone=21,11 / fast_pskip=0 / chroma_qp_offset=-2 / threads=14 / sliced_threads=0 / nr=0 / decimate=0 / interlaced=0 / bluray_compat=0 / constrained_intra=0 / bframes=7 / b_pyramid=2 / b_adapt=2 / b_bias=0 / direct=3 / weightb=1 / open_gop=0 / weightp=2 / keyint=250 / keyint_min=23 / scenecut=40 / intra_refresh=0 / rc_lookahead=40 / rc=2pass / mbtree=0 / bitrate=12000 / ratetol=1.0 / qcomp=0.65 / qpmin=0 / qpmax=40 / qpstep=4 / cplxblur=20.0 / qblur=0.5 / vbv_maxrate=50000 / vbv_bufsize=50000 / nal_hrd=none / ip_ratio=1.25 / pb_ratio=1.25 / aq=1:0.65
Language : English
Default : No
Forced : No
Audio #1
ID : 2
Format : AC-3
Format/Info : Audio Coding 3
Mode extension : CM (complete main)
Format settings, Endianness : Big
Codec ID : A_AC3
Duration : 2h 12mn
Bit rate mode : Constant
Bit rate : 640 Kbps
Channel(s) : 6 channels
Channel positions : Front: L C R, Side: L R, LFE
Sampling rate : 48.0 KHz
Bit depth : 16 bits
Compression mode : Lossy
Stream size : 604 MiB (4%)
Title : DUB- BluRay CEE
Language : Russian
Default : Yes
Forced : No
Audio #2
ID : 3
Format : AC-3
Format/Info : Audio Coding 3
Mode extension : CM (complete main)
Format settings, Endianness : Big
Codec ID : A_AC3
Duration : 2h 12mn
Bit rate mode : Constant
Bit rate : 640 Kbps
Channel(s) : 6 channels
Channel positions : Front: L C R, Side: L R, LFE
Sampling rate : 48.0 KHz
Bit depth : 16 bits
Compression mode : Lossy
Stream size : 604 MiB (4%)
Title : DUB- BluRay CEE
Language : Ukrainian
Default : No
Forced : No
Audio #3
ID : 4
Format : DTS
Format/Info : Digital Theater Systems
Codec ID : A_DTS
Duration : 2h 12mn
Bit rate mode : Constant
Bit rate : 1 510 Kbps
Channel(s) : 6 channels
Channel positions : Front: L C R, Side: L R, LFE
Sampling rate : 48.0 KHz
Bit depth : 24 bits
Compression mode : Lossy
Stream size : 1.39 GiB (9%)
Title : AVO-Гаврилов
Language : Russian
Default : No
Forced : No
Audio #4
ID : 5
Format : DTS
Format/Info : Digital Theater Systems
Codec ID : A_DTS
Duration : 2h 12mn
Bit rate mode : Constant
Bit rate : 1 510 Kbps
Channel(s) : 6 channels
Channel positions : Front: L C R, Side: L R, LFE
Sampling rate : 48.0 KHz
Bit depth : 24 bits
Compression mode : Lossy
Stream size : 1.39 GiB (9%)
Title : Original
Language : English
Default : No
Forced : No
Audio #5
ID : 6
Format : AC-3
Format/Info : Audio Coding 3
Mode extension : CM (complete main)
Format settings, Endianness : Big
Codec ID : A_AC3
Duration : 2h 12mn
Bit rate mode : Constant
Bit rate : 320 Kbps
Channel(s) : 2 channels
Channel positions : Front: L R
Sampling rate : 48.0 KHz
Bit depth : 16 bits
Compression mode : Lossy
Stream size : 302 MiB (2%)
Title : Commentary
Language : English
Default : No
Forced : No
Text #1
ID : 7
Format : UTF-8
Codec ID : S_TEXT/UTF8
Codec ID/Info : UTF-8 Plain Text
Title : Sub-Forced
Language : Russian
Default : Yes
Forced : No
Text #2
ID : 8
Format : UTF-8
Codec ID : S_TEXT/UTF8
Codec ID/Info : UTF-8 Plain Text
Title : Sub-Full
Language : Russian
Default : No
Forced : No
Text #3
ID : 9
Format : UTF-8
Codec ID : S_TEXT/UTF8
Codec ID/Info : UTF-8 Plain Text
Title : Sub-voronine
Language : Russian
Default : No
Forced : No
Text #4
ID : 10
Format : UTF-8
Codec ID : S_TEXT/UTF8
Codec ID/Info : UTF-8 Plain Text
Title : Sub-Commentary
Language : Russian
Default : No
Forced : No
Text #5
ID : 11
Format : UTF-8
Codec ID : S_TEXT/UTF8
Codec ID/Info : UTF-8 Plain Text
Title : Sub-Forced
Language : Ukrainian
Default : No
Forced : No
Text #6
ID : 12
Format : UTF-8
Codec ID : S_TEXT/UTF8
Codec ID/Info : UTF-8 Plain Text
Title : Sub-Full
Language : Ukrainian
Default : No
Forced : No
Text #7
ID : 13
Format : UTF-8
Codec ID : S_TEXT/UTF8
Codec ID/Info : UTF-8 Plain Text
Title : Sub-Commentary
Language : Ukrainian
Default : No
Forced : No
Text #8
ID : 14
Format : UTF-8
Codec ID : S_TEXT/UTF8
Codec ID/Info : UTF-8 Plain Text
Title : Sub-Forced
Language : English
Default : No
Forced : No
Text #9
ID : 15
Format : UTF-8
Codec ID : S_TEXT/UTF8
Codec ID/Info : UTF-8 Plain Text
Title : Sub-Full
Language : English
Default : No
Forced : No
Text #10
ID : 16
Format : UTF-8
Codec ID : S_TEXT/UTF8
Codec ID/Info : UTF-8 Plain Text
Title : Sub-Commentary
Language : English
Default : No
Forced : No
Menu
00:00:00.000 : 00:00:00.000
00:08:02.315 : 00:08:02.315
00:11:49.167 : 00:11:49.167
00:15:18.751 : 00:15:18.751
00:20:33.482 : 00:20:33.482
00:23:04.258 : 00:23:04.258
00:29:39.444 : 00:29:39.444
00:37:23.992 : 00:37:23.992
00:42:47.982 : 00:42:47.982
00:50:22.269 : 00:50:22.269
01:01:04.661 : 01:01:04.661
01:14:05.107 : 01:14:05.107
01:28:01.234 : 01:28:01.234
01:38:20.561 : 01:38:20.561
01:45:40.167 : 01:45:40.167
01:51:15.085 : 01:51:15.085
01:57:47.769 : 01:57:47.769

Скриншоты

Source vs Encode

[Цитировать]



Показать сообщения:    

Текущее время: 11-Дек 07:12

Часовой пояс: UTC + 3


Вы не можете начинать темы
Вы не можете отвечать на сообщения
Вы не можете редактировать свои сообщения
Вы не можете удалять свои сообщения
Вы не можете голосовать в опросах
Вы не можете прикреплять файлы к сообщениям
Вы не можете скачивать файлы

!ВНИМАНИЕ!
Сайт не предоставляет электронные версии произведений, а занимается лишь коллекционированием и каталогизацией ссылок, присылаемых и публикуемых на форуме нашими читателями. Если вы являетесь правообладателем какого-либо представленного материала и не желаете, чтобы ссылка на него находилась в нашем каталоге, свяжитесь с нами, и мы незамедлительно удалим ее. Файлы для обмена на трекере предоставлены пользователями сайта, и администрация не несет ответственности за их содержание. Просьба не заливать файлы, защищенные авторскими правами, а также файлы нелегального содержания!