[ Сегодня идет свободное скачивание без начисления Download ]


Статистика раздачи
Нет
 
   
 
Top  
 
 

Форсаж / The Fast and the Furious

Тройной форсаж: Токийский Дрифт/ The Fast and the Furious: Tokyo Drift
«Live life 1/4 mile at a time»
Страна: США, Германия
Производство: Universal Pictures, Original Film, Mediastream Film GmbH & Co. Productions KG
Жанр: боевик, триллер, криминал
Год выпуска: 2001
Продолжительность: 01:46:57
Перевод #1: Профессиональный (полное дублирование)
Перевод #2: Профессиональный (многоголосый закадровый) - R5, Universal
Субтитры: Русские, Русские (Forced), Русские (Комментарии), Английские, Английские (Комментарии)
Формат субтитров: softsub (SRT)
Оригинальная аудиодорожка: английский
Режиссер: Роб Коэн / Rob Cohen
В ролях: Пол Уолкер, Вин Дизель, Мишель Родригез, Джордана Брюстер, Рик Юн, Чад Линдберг, Джонни Стронг, Матт Шульц, Тед Ливайн, Джа Рул, Вито Ругинис, Том Барри, Стэнтон Рутледж, Ноель Гуглиеми, Р.Д. де Вера
Описание: Его зовут Брайан, и он — фанатик турбин и нитроускорителей. Его цель — быть принятым в автобанду легендарного Доминика Торетто, чемпиона опасных и незаконных уличных гонок. Но это лишь часть правды… Брайан также полицейский, имеющий задание войти в доверие к Торетто, подозреваемому в причастности к дерзким грабежам трейлеров, совершенным прямо «с колес».
Но чем больше доверяет нахальному новичку харизматичный Доминик, тем больше проникается герой идеалами «ангелов дорог». И тем меньше ему хочется выполнять свою миссию. И вот, наступает момент, когда Брайану придется выбирать между дружбой и долгом. И выбирать на скорости в 200 километров в час…


Автор рипа:
Качество: BDRip-AVC | исх. Форсаж / The Fast and the Furious (2001) Blu-ray CEE 1080p VC-1 DTS 5.1
Формат: MKV
Видео кодек: H.264
Аудио кодек: AC3
Видео: 1136x480 (2.35:1), 23,976 fps, H.264 ~4 500 kbps avg, 0.344 bit/pixel
Аудио 1: 48 kHz, AC3, 3/2 (L,C,R,l,r) + LFE ch, ~448.00 kbps avg | Профессиональный (полное дублирование)
Аудио 2: 48 kHz, AC3, 3/2 (L,C,R,l,r) + LFE ch, ~448.00 kbps avg | Профессиональный (многоголосый закадровый) - R5, Universal
Аудио 3: 48 kHz, AC3, 3/2 (L,C,R,l,r) + LFE ch, ~448.00 kbps avg | Оригинал (английский)
Премьера (мир) - 18 июня 2001
Премьера (РФ) - 18 октября 2001, «Ист-Вест»

MediaInfo | Log x264

Log x264

avs [info]: 1136x480p 1:1 @ 2997/125 fps (cfr)
x264 [info]: using SAR=1/1
x264 [info]: using cpu capabilities: MMX2 SSE2Fast SSSE3 FastShuffle SSE4.2 AVX
x264 [info]: profile High, level 4.1
x264 [info]: frame I:1119 Avg QP:15.21 size:103084
x264 [info]: frame P:37442 Avg QP:18.61 size: 37649
x264 [info]: frame B:115148 Avg QP:20.26 size: 18074
x264 [info]: consecutive B-frames: 4.1% 5.5% 8.3% 24.9% 16.6% 24.0% 5.7% 4.1% 1.7% 1.3% 0.8% 0.8% 0.5% 0.7% 0.5% 0.5%
x264 [info]: mb I I16..4: 14.6% 62.0% 23.4%
x264 [info]: mb P I16..4: 1.5% 19.2% 2.3% P16..4: 23.8% 32.2% 11.9% 3.1% 0.4% skip: 5.6%
x264 [info]: mb B I16..4: 0.2% 4.0% 0.2% B16..8: 37.6% 23.5% 4.5% direct: 8.6% skip:21.5% L0:43.0% L1:42.7% BI:14.3%
x264 [info]: 8x8 transform intra:84.4% inter:56.9%
x264 [info]: direct mvs spatial:98.6% temporal:1.4%
x264 [info]: coded y,uvDC,uvAC intra: 93.5% 80.2% 55.8% inter: 43.1% 26.5% 3.9%
x264 [info]: i16 v,h,dc,p: 24% 18% 12% 45%
x264 [info]: i8 v,h,dc,ddl,ddr,vr,hd,vl,hu: 8% 9% 10% 10% 13% 12% 13% 11% 13%
x264 [info]: i4 v,h,dc,ddl,ddr,vr,hd,vl,hu: 9% 13% 6% 8% 14% 13% 13% 11% 12%
x264 [info]: i8c dc,h,v,p: 38% 28% 16% 18%
x264 [info]: Weighted P-Frames: Y:3.1% UV:1.8%
x264 [info]: ref P L0: 44.6% 10.1% 18.0% 7.3% 5.8% 4.2% 3.7% 2.1% 2.0% 1.8% 0.4% 0.0%
x264 [info]: ref B L0: 70.9% 12.7% 6.4% 3.3% 2.4% 1.9% 1.5% 0.7% 0.3%
x264 [info]: ref B L1: 90.8% 9.2%
x264 [info]: kb/s:4500.00
x264 [total]: encoded 153709 frames, 3.06 fps, 4500.00 kb/s
Общее
Уникальный идентификатор : 245632583657241593582292848385699008123 (0xB8CB1D64BAE3EA8DA5E51F51199ACE7B)
Полное имя : D:\my rips\The.Fast.&.The.Furious.BDRip-AVC.DUB.MVO.ORG.SUBs.by.zOJIOtOi.mkv
Формат : Matroska
Версия формата : Version 2
Размер файла : 4,37 Гбайт
Продолжительность : 1 ч. 47 м.
Общий поток : 5828 Кбит/сек
Дата кодирования : UTC 2013-07-13 10:13:32
Программа кодирования : mkvmerge v5.8.0 ('No Sleep / Pillow') built on Sep 2 2012 15:37:04
Библиотека кодирования : libebml v1.2.3 + libmatroska v1.3.0
Видео
Идентификатор : 1
Формат : AVC
Формат/Информация : Advanced Video Codec
Профиль формата : High@L4.1
Параметр CABAC формата : Да
Параметр ReFrames формата : 10 кадров
Идентификатор кодека : V_MPEG4/ISO/AVC
Продолжительность : 1 ч. 47 м.
Битрейт : 4500 Кбит/сек
Ширина : 1136 пикселей
Высота : 480 пикселей
Соотношение сторон : 2,35:1
Режим частоты кадров : Постоянный
Частота кадров : 23,976 кадра/сек
Цветовое пространство : YUV
Субдискретизация насыщенности : 4:2:0
Битовая глубина : 8 бит
Тип развёртки : Прогрессивная
Бит/(Пиксели*Кадры) : 0.344
Размер потока : 3,27 Гбайт (75%)
Заголовок : The.Fast.&.The.Furious.BDRip-AVC.by.zOJIOtOi
Библиотека кодирования : x264 core 125 r2208 d9d2288
Настройки программы : cabac=1 / ref=10 / deblock=1:-3:-3 / analyse=0x3:0x133 / me=umh / subme=11 / psy=1 / psy_rd=1.00:0.15 / mixed_ref=1 / me_range=48 / chroma_me=1 / trellis=2 / 8x8dct=1 / cqm=0 / deadzone=21,11 / fast_pskip=1 / chroma_qp_offset=-3 / threads=6 / lookahead_threads=2 / sliced_threads=0 / nr=0 / decimate=1 / interlaced=0 / bluray_compat=0 / constrained_intra=0 / bframes=15 / b_pyramid=2 / b_adapt=2 / b_bias=0 / direct=3 / weightb=1 / open_gop=0 / weightp=2 / keyint=250 / keyint_min=23 / scenecut=40 / intra_refresh=0 / rc_lookahead=80 / rc=2pass / mbtree=1 / bitrate=4500 / ratetol=1.0 / qcomp=0.60 / qpmin=0 / qpmax=69 / qpstep=4 / cplxblur=20.0 / qblur=0.5 / ip_ratio=1.40 / aq=2:1.00
Язык : English
Default : Да
Forced : Нет
Аудио #1
Идентификатор : 2
Формат : AC-3
Формат/Информация : Audio Coding 3
Расширение режима : CM (complete main)
Параметр Endianness формата : Big
Идентификатор кодека : A_AC3
Продолжительность : 1 ч. 47 м.
Вид битрейта : Постоянный
Битрейт : 448 Кбит/сек
Каналы : 6 каналов
Расположение каналов : Front: L C R, Side: L R, LFE
Частота : 48,0 КГц
Битовая глубина : 16 бит
Метод сжатия : С потерями
Размер потока : 344 Мбайт (8%)
Заголовок : Dub
Язык : Russian
Default : Да
Forced : Нет
Аудио #2
Идентификатор : 3
Формат : AC-3
Формат/Информация : Audio Coding 3
Расширение режима : CM (complete main)
Параметр Endianness формата : Big
Идентификатор кодека : A_AC3
Продолжительность : 1 ч. 47 м.
Вид битрейта : Постоянный
Битрейт : 448 Кбит/сек
Каналы : 6 каналов
Расположение каналов : Front: L C R, Side: L R, LFE
Частота : 48,0 КГц
Битовая глубина : 16 бит
Метод сжатия : С потерями
Размер потока : 344 Мбайт (8%)
Заголовок : MVO
Язык : Russian
Default : Нет
Forced : Нет
Аудио #3
Идентификатор : 4
Формат : AC-3
Формат/Информация : Audio Coding 3
Расширение режима : CM (complete main)
Параметр Endianness формата : Big
Идентификатор кодека : A_AC3
Продолжительность : 1 ч. 47 м.
Вид битрейта : Постоянный
Битрейт : 448 Кбит/сек
Каналы : 6 каналов
Расположение каналов : Front: L C R, Side: L R, LFE
Частота : 48,0 КГц
Битовая глубина : 16 бит
Метод сжатия : С потерями
Размер потока : 344 Мбайт (8%)
Заголовок : Original
Язык : English
Default : Нет
Forced : Нет
Текст #1
Идентификатор : 5
Формат : UTF-8
Идентификатор кодека : S_TEXT/UTF8
Идентификатор кодека/Информация : UTF-8 Plain Text
Заголовок : Russian (srt)
Язык : Russian
Default : Да
Forced : Нет
Текст #2
Идентификатор : 6
Формат : UTF-8
Идентификатор кодека : S_TEXT/UTF8
Идентификатор кодека/Информация : UTF-8 Plain Text
Заголовок : Russian (forsed)
Язык : Russian
Default : Нет
Forced : Нет
Текст #3
Идентификатор : 7
Формат : UTF-8
Идентификатор кодека : S_TEXT/UTF8
Идентификатор кодека/Информация : UTF-8 Plain Text
Заголовок : Russian (commentary)
Язык : Russian
Default : Нет
Forced : Нет
Текст #4
Идентификатор : 8
Формат : UTF-8
Идентификатор кодека : S_TEXT/UTF8
Идентификатор кодека/Информация : UTF-8 Plain Text
Заголовок : English (srt)
Язык : English
Default : Нет
Forced : Нет

Скриншоты

Двойной форсаж / 2 Fast 2 Furious

Двойной форсаж / 2 Fast 2 Furious
«Какую скорость ты выдержишь?»
Страна: США, Германия
Производство: Universal Pictures, Original Film, Mikona Productions GmbH & Co. KG
Жанр: боевик, триллер, криминал
Год выпуска: 2003
Продолжительность: 01:47:35
Перевод #1: Профессиональный (полное дублирование)
Перевод #2: Профессиональный (многоголосый закадровый)
Субтитры: Русские (2 вида), Русские (Forced), Русские (Комментарии), Английские
Формат субтитров: softsub (SRT)
Оригинальная аудиодорожка: английский
Режиссер: Джон Синглтон / John Singleton
В ролях: Пол Уокер, Тайриз Гибсон, Ева Мендес, Коул Хаузер, Лудакрис, Том Бэрри, Джеймс Римар, Девон Аоки, Амори Ноласко, Майкл Или
Описание: Брайан О’Конне – бывший полицейский, без ума влюбленный в автомобили и высокую скорость. Вдавленная педаль газа и форсаж, разгоняющий машину до максимума вводит его в состояние восторга.
Брайан вместе со своим напарником Романом Пиарсом планируют осуществить транспортировку крупной суммы «грязных денег» известного криминального авторитета Картера Верона. Но на самом деле все это является лишь прикрытием для Брайана, имеющего задание вывести на чистую воду изворотливого хитроумного преступника, которое он выполняет вместе с тайным агентом по имени Моника Клемент.


Автор рипа:
Качество: BDRip-AVC | исх. Двойной форсаж / 2 Fast 2 Furious (2003) Blu-ray CEE 1080p VC-1 DTS 5.1
Формат: MKV
Видео кодек: H.264
Аудио кодек: AC3
Видео: 1136x480 (2.35:1), 23,976 fps, H.264 ~4 467 kbps avg, 0.342 bit/pixel
Аудио 1: 48 kHz, AC3, 3/2 (L,C,R,l,r) + LFE ch, ~448.00 kbps avg | Профессиональный (полное дублирование)
Аудио 2: 48 kHz, AC3, 3/2 (L,C,R,l,r) + LFE ch, ~448.00 kbps avg | Профессиональный (многоголосый закадровый)
Аудио 3: 48 kHz, AC3, 3/2 (L,C,R,l,r) + LFE ch, ~448.00 kbps avg | Оригинал (английский)
Премьера (мир) - 3 июня 2003
Премьера (РФ) - 21 июля 2003, «Ист-Вест»

MediaInfo | Log x264

Log x264

avs [info]: 1136x480p 1:1 @ 2997/125 fps (cfr)
x264 [info]: using SAR=1/1
x264 [info]: using cpu capabilities: MMX2 SSE2Fast SSSE3 FastShuffle SSE4.2 AVX
x264 [info]: profile High, level 4.1
x264 [info]: frame I:1556 Avg QP:18.45 size: 92005
x264 [info]: frame P:37198 Avg QP:20.22 size: 40264
x264 [info]: frame B:116031 Avg QP:22.40 size: 16907
x264 [info]: consecutive B-frames: 3.8% 4.1% 8.2% 27.8% 16.2% 30.2% 5.0% 2.3% 1.2% 0.6% 0.4% 0.2%
x264 [info]: mb I I16..4: 5.8% 75.4% 18.8%
x264 [info]: mb P I16..4: 1.1% 16.5% 2.2% P16..4: 25.2% 33.0% 13.5% 2.6% 0.2% skip: 5.7%
x264 [info]: mb B I16..4: 0.1% 3.3% 0.2% B16..8: 38.3% 23.2% 4.9% direct: 7.4% skip:22.7% L0:42.1% L1:42.5% BI:15.4%
x264 [info]: 8x8 transform intra:84.9% inter:61.3%
x264 [info]: direct mvs spatial:98.5% temporal:1.5%
x264 [info]: coded y,uvDC,uvAC intra: 94.3% 84.1% 53.6% inter: 41.7% 29.2% 4.4%
x264 [info]: i16 v,h,dc,p: 15% 30% 4% 50%
x264 [info]: i8 v,h,dc,ddl,ddr,vr,hd,vl,hu: 6% 10% 8% 10% 14% 12% 15% 11% 14%
x264 [info]: i4 v,h,dc,ddl,ddr,vr,hd,vl,hu: 7% 12% 4% 8% 15% 13% 15% 11% 14%
x264 [info]: i8c dc,h,v,p: 35% 31% 16% 18%
x264 [info]: Weighted P-Frames: Y:4.2% UV:1.2%
x264 [info]: ref P L0: 44.3% 12.6% 17.5% 7.0% 5.5% 3.9% 3.4% 1.9% 1.9% 1.7% 0.3% 0.0%
x264 [info]: ref B L0: 75.9% 11.0% 5.2% 2.7% 1.9% 1.5% 1.1% 0.5% 0.2%
x264 [info]: ref B L1: 93.1% 6.9%
x264 [info]: kb/s:4464.32
x264 [total]: encoded 154785 frames, 3.31 fps, 4464.32 kb/s
Общее
Уникальный идентификатор : 200255445114944010546933598660347793025 (0x96A7CBBB574A99A58A778EF6F6578E81)
Полное имя : D:\my rips\2.Fast.2.Furious.2003.BDRip-AVC.DUB.MVO.ORG.SUBs.by.zOJIOtOi.mkv
Формат : Matroska
Версия формата : Version 2
Размер файла : 4,37 Гбайт
Продолжительность : 1 ч. 47 м.
Общий поток : 5811 Кбит/сек
Дата кодирования : UTC 2013-07-20 14:31:24
Программа кодирования : mkvmerge v5.8.0 ('No Sleep / Pillow') built on Sep 2 2012 15:37:04
Библиотека кодирования : libebml v1.2.3 + libmatroska v1.3.0
Видео
Идентификатор : 1
Формат : AVC
Формат/Информация : Advanced Video Codec
Профиль формата : High@L4.1
Параметр CABAC формата : Да
Параметр ReFrames формата : 10 кадров
Идентификатор кодека : V_MPEG4/ISO/AVC
Продолжительность : 1 ч. 47 м.
Битрейт : 4467 Кбит/сек
Ширина : 1136 пикселей
Высота : 480 пикселей
Соотношение сторон : 2,35:1
Режим частоты кадров : Постоянный
Частота кадров : 23,976 кадра/сек
Цветовое пространство : YUV
Субдискретизация насыщенности : 4:2:0
Битовая глубина : 8 бит
Тип развёртки : Прогрессивная
Бит/(Пиксели*Кадры) : 0.342
Размер потока : 3,27 Гбайт (75%)
Заголовок : 2.Fast.2.Furious.2003.BDRip-AVC.by.zOJIOtOi
Библиотека кодирования : x264 core 125 r2208 d9d2288
Настройки программы : cabac=1 / ref=10 / deblock=1:-2:-2 / analyse=0x3:0x133 / me=umh / subme=11 / psy=1 / psy_rd=1.00:0.05 / mixed_ref=1 / me_range=32 / chroma_me=1 / trellis=2 / 8x8dct=1 / cqm=0 / deadzone=21,11 / fast_pskip=1 / chroma_qp_offset=-3 / threads=6 / lookahead_threads=1 / sliced_threads=0 / nr=0 / decimate=1 / interlaced=0 / bluray_compat=0 / constrained_intra=0 / bframes=11 / b_pyramid=2 / b_adapt=2 / b_bias=0 / direct=3 / weightb=1 / open_gop=0 / weightp=2 / keyint=250 / keyint_min=23 / scenecut=40 / intra_refresh=0 / rc_lookahead=80 / rc=2pass / mbtree=1 / bitrate=4467 / ratetol=1.0 / qcomp=0.60 / qpmin=0 / qpmax=69 / qpstep=4 / cplxblur=20.0 / qblur=0.5 / vbv_maxrate=50000 / vbv_bufsize=62500 / nal_hrd=none / ip_ratio=1.40 / aq=2:1.00
Язык : English
Default : Да
Forced : Нет
Аудио #1
Идентификатор : 2
Формат : AC-3
Формат/Информация : Audio Coding 3
Расширение режима : CM (complete main)
Параметр Endianness формата : Big
Идентификатор кодека : A_AC3
Продолжительность : 1 ч. 47 м.
Вид битрейта : Постоянный
Битрейт : 448 Кбит/сек
Каналы : 6 каналов
Расположение каналов : Front: L C R, Side: L R, LFE
Частота : 48,0 КГц
Битовая глубина : 16 бит
Метод сжатия : С потерями
Размер потока : 345 Мбайт (8%)
Заголовок : Dub
Язык : Russian
Default : Нет
Forced : Нет
Аудио #2
Идентификатор : 3
Формат : AC-3
Формат/Информация : Audio Coding 3
Расширение режима : CM (complete main)
Параметр Endianness формата : Big
Идентификатор кодека : A_AC3
Продолжительность : 1 ч. 47 м.
Вид битрейта : Постоянный
Битрейт : 448 Кбит/сек
Каналы : 6 каналов
Расположение каналов : Front: L C R, Side: L R, LFE
Частота : 48,0 КГц
Битовая глубина : 16 бит
Метод сжатия : С потерями
Размер потока : 345 Мбайт (8%)
Заголовок : MVO
Язык : Russian
Default : Да
Forced : Нет
Аудио #3
Идентификатор : 4
Формат : AC-3
Формат/Информация : Audio Coding 3
Расширение режима : CM (complete main)
Параметр Endianness формата : Big
Идентификатор кодека : A_AC3
Продолжительность : 1 ч. 47 м.
Вид битрейта : Постоянный
Битрейт : 448 Кбит/сек
Каналы : 6 каналов
Расположение каналов : Front: L C R, Side: L R, LFE
Частота : 48,0 КГц
Битовая глубина : 16 бит
Метод сжатия : С потерями
Размер потока : 345 Мбайт (8%)
Заголовок : Original
Язык : English
Default : Нет
Forced : Нет
Текст #1
Идентификатор : 5
Формат : UTF-8
Идентификатор кодека : S_TEXT/UTF8
Идентификатор кодека/Информация : UTF-8 Plain Text
Заголовок : Russian
Язык : Russian
Default : Да
Forced : Нет
Текст #2
Идентификатор : 6
Формат : UTF-8
Идентификатор кодека : S_TEXT/UTF8
Идентификатор кодека/Информация : UTF-8 Plain Text
Заголовок : Russian
Язык : Russian
Default : Нет
Forced : Нет
Текст #3
Идентификатор : 7
Формат : UTF-8
Идентификатор кодека : S_TEXT/UTF8
Идентификатор кодека/Информация : UTF-8 Plain Text
Заголовок : Russian (Forced)
Язык : Russian
Default : Нет
Forced : Нет
Текст #4
Идентификатор : 8
Формат : UTF-8
Идентификатор кодека : S_TEXT/UTF8
Идентификатор кодека/Информация : UTF-8 Plain Text
Заголовок : Commentary
Язык : Russian
Default : Нет
Forced : Нет
Текст #5
Идентификатор : 9
Формат : UTF-8
Идентификатор кодека : S_TEXT/UTF8
Идентификатор кодека/Информация : UTF-8 Plain Text
Заголовок : English
Язык : English
Default : Нет
Forced : Нет

Скриншоты

Тройной форсаж: Токийский Дрифт/ The Fast and the Furious: Tokyo Drift

Форсаж / The Fast and the Furious
«На улицах Токио, слово «скорость» не нуждается в переводе.»
Страна: США, Германия
Производство: Universal Pictures, Relativity Media, Original Film
Жанр: боевик, триллер, драма, криминал
Год выпуска: 2006
Продолжительность: 01:44:14
Перевод #1: Профессиональный (полное дублирование)
Перевод #2: Авторский (одноголосый закадровый) - Ю.Немахов
Субтитры: Русские, Русские (Forced), Русские (Комментарии), Английские
Формат субтитров: softsub (SRT)
Оригинальная аудиодорожка: английский
Режиссер: Джастин Лин / Justin Lin
В ролях: Лукас Блэк, Бау Вау, Брайан Ти, Санг Кенг, Брэндон Брендел, Дэниэл Буко, Дэвид Томас, Эмбер Стивенс, Ашика Гонья, Кристиан Салазар
Описание: Шон Босуэлл — одинокий парень, который хочет казаться профи уличных гонок. Он бесшабашно гоняется по улицам города, пытаясь убежать от жизненных невзгод и наживая себе врагов среди местных властей. Когда Шону грозит тюрьма, его от греха подальше отсылают к отцу — профессиональному военному, который служит на военной базе в Японии.
В незнакомой стране, живущей по своим законам, Шон чувствует себя еще большим изгоем. Однако вскоре его американский приятель Твинки знакомит его с миром подпольного дрифт-рейсинга. Раньше Шон просто тупо гонялся по улицам, а здесь перед ним открылся целый мир своеобразного искусства из металла и резины, дороги которого оказались невообразимо круты на поворотах…


Автор рипа:
Качество: BDRip-AVC | исх. Тройной форсаж: Токийский Дрифт / The Fast and the Furious: Tokyo Drift (2006) Blu-ray CEE 1080p VC-1 DD 5.1
Формат: MKV
Видео кодек: H.264
Аудио кодек: AC3
Видео: 1136x480 (2.35:1), 23,976 fps, H.264 ~4 500 kbps avg, 0.344 bit/pixel
Аудио 1: 48 kHz, AC3, 3/2 (L,C,R,l,r) + LFE ch, ~448.00 kbps avg | Профессиональный (полное дублирование)
Аудио 2: 48 kHz, AC3, 3/2 (L,C,R,l,r) + LFE ch, ~448.00 kbps avg | Авторский (одноголосый закадровый) - Ю.Немахов
Аудио 3: 48 kHz, AC3, 3/2 (L,C,R,l,r) + LFE ch, ~448.00 kbps avg | Оригинал (английский)
Премьера (мир) - 4 июня 2006
Премьера (РФ) - 29 июня 2006, «UIP»

MediaInfo | Log x264

Log x264

avs [info]: 1136x480p 1:1 @ 2500000/104271 fps (cfr)
x264 [info]: using SAR=1/1
x264 [info]: using cpu capabilities: MMX2 SSE2Fast SSSE3 FastShuffle SSE4.2 AVX
x264 [info]: profile High, level 4.1
x264 [info]: frame I:1272 Avg QP:16.27 size: 97116
x264 [info]: frame P:39664 Avg QP:17.87 size: 39021
x264 [info]: frame B:109013 Avg QP:19.86 size: 16906
x264 [info]: consecutive B-frames: 5.0% 6.3% 14.3% 20.3% 13.8% 34.9% 3.8% 0.6% 0.6% 0.4%
x264 [info]: mb I I16..4: 6.3% 74.8% 18.9%
x264 [info]: mb P I16..4: 1.1% 15.4% 1.9% P16..4: 25.6% 34.3% 13.6% 2.6% 0.2% skip: 5.3%
x264 [info]: mb B I16..4: 0.1% 2.5% 0.2% B16..8: 37.7% 24.3% 4.7% direct: 7.8% skip:22.7% L0:42.8% L1:42.6% BI:14.7%
x264 [info]: 8x8 transform intra:84.4% inter:62.1%
x264 [info]: direct mvs spatial:96.8% temporal:3.2%
x264 [info]: coded y,uvDC,uvAC intra: 92.5% 92.3% 79.1% inter: 41.8% 39.4% 14.4%
x264 [info]: i16 v,h,dc,p: 20% 21% 6% 53%
x264 [info]: i8 v,h,dc,ddl,ddr,vr,hd,vl,hu: 7% 9% 6% 10% 15% 13% 15% 11% 14%
x264 [info]: i4 v,h,dc,ddl,ddr,vr,hd,vl,hu: 8% 12% 5% 9% 15% 13% 15% 10% 13%
x264 [info]: i8c dc,h,v,p: 45% 22% 14% 20%
x264 [info]: Weighted P-Frames: Y:2.3% UV:1.1%
x264 [info]: ref P L0: 46.6% 10.8% 18.0% 7.0% 5.6% 3.8% 3.5% 2.0% 2.0% 0.5% 0.0%
x264 [info]: ref B L0: 74.9% 11.9% 5.5% 2.9% 2.0% 1.6% 0.9% 0.3%
x264 [info]: ref B L1: 92.8% 7.2%
x264 [info]: kb/s:4495.28
x264 [total]: encoded 149949 frames, 3.35 fps, 4495.28 kb/s
Общее
Уникальный идентификатор : 206239979285099587439078768358420702745 (0x9B28600C06946A59838271ED6790E619)
Полное имя : D:\my rips\The.Fast.and.the.Furious.Tokyo.Drift.2006.BDRip-AVC.DUB.AVO.ORG.SUBs.by.zOJIOtOi.mkv
Формат : Matroska
Версия формата : Version 2
Размер файла : 4,25 Гбайт
Продолжительность : 1 ч. 44 м.
Общий поток : 5842 Кбит/сек
Дата кодирования : UTC 2013-07-20 12:25:04
Программа кодирования : mkvmerge v5.8.0 ('No Sleep / Pillow') built on Sep 2 2012 15:37:04
Библиотека кодирования : libebml v1.2.3 + libmatroska v1.3.0
Видео
Идентификатор : 1
Формат : AVC
Формат/Информация : Advanced Video Codec
Профиль формата : High@L4.1
Параметр CABAC формата : Да
Параметр ReFrames формата : 9 кадров
Идентификатор кодека : V_MPEG4/ISO/AVC
Продолжительность : 1 ч. 44 м.
Битрейт : 4500 Кбит/сек
Ширина : 1136 пикселей
Высота : 480 пикселей
Соотношение сторон : 2,35:1
Режим частоты кадров : Постоянный
Частота кадров : 23,976 кадра/сек
Цветовое пространство : YUV
Субдискретизация насыщенности : 4:2:0
Битовая глубина : 8 бит
Тип развёртки : Прогрессивная
Бит/(Пиксели*Кадры) : 0.344
Размер потока : 3,19 Гбайт (75%)
Заголовок : The.Fast.and.the.Furious:Tokyo.Drift.2006.BDRip-AVC.by.zOJIOtOi
Библиотека кодирования : x264 core 125 r2208 d9d2288
Настройки программы : cabac=1 / ref=9 / deblock=1:-2:-2 / analyse=0x3:0x133 / me=umh / subme=11 / psy=1 / psy_rd=1.00:0.00 / mixed_ref=1 / me_range=32 / chroma_me=1 / trellis=2 / 8x8dct=1 / cqm=0 / deadzone=21,11 / fast_pskip=1 / chroma_qp_offset=-2 / threads=6 / lookahead_threads=2 / sliced_threads=0 / nr=0 / decimate=1 / interlaced=0 / bluray_compat=0 / constrained_intra=0 / bframes=9 / b_pyramid=2 / b_adapt=2 / b_bias=0 / direct=3 / weightb=1 / open_gop=0 / weightp=2 / keyint=250 / keyint_min=23 / scenecut=40 / intra_refresh=0 / rc_lookahead=80 / rc=2pass / mbtree=1 / bitrate=4500 / ratetol=1.0 / qcomp=0.60 / qpmin=0 / qpmax=69 / qpstep=4 / cplxblur=20.0 / qblur=0.5 / vbv_maxrate=50000 / vbv_bufsize=62500 / nal_hrd=none / ip_ratio=1.40 / aq=2:1.00
Язык : English
Default : Да
Forced : Нет
Аудио #1
Идентификатор : 2
Формат : AC-3
Формат/Информация : Audio Coding 3
Расширение режима : CM (complete main)
Параметр Endianness формата : Big
Идентификатор кодека : A_AC3
Продолжительность : 1 ч. 44 м.
Вид битрейта : Постоянный
Битрейт : 448 Кбит/сек
Каналы : 6 каналов
Расположение каналов : Front: L C R, Side: L R, LFE
Частота : 48,0 КГц
Битовая глубина : 16 бит
Метод сжатия : С потерями
Размер потока : 334 Мбайт (8%)
Заголовок : Dub
Язык : Russian
Default : Да
Forced : Нет
Аудио #2
Идентификатор : 3
Формат : AC-3
Формат/Информация : Audio Coding 3
Расширение режима : CM (complete main)
Параметр Endianness формата : Big
Идентификатор кодека : A_AC3
Продолжительность : 1 ч. 44 м.
Вид битрейта : Постоянный
Битрейт : 448 Кбит/сек
Каналы : 6 каналов
Расположение каналов : Front: L C R, Side: L R, LFE
Частота : 48,0 КГц
Битовая глубина : 16 бит
Метод сжатия : С потерями
Размер потока : 334 Мбайт (8%)
Заголовок : AVO-Nemahov
Язык : Russian
Default : Нет
Forced : Нет
Аудио #3
Идентификатор : 4
Формат : AC-3
Формат/Информация : Audio Coding 3
Расширение режима : CM (complete main)
Параметр Endianness формата : Big
Идентификатор кодека : A_AC3
Продолжительность : 1 ч. 44 м.
Вид битрейта : Постоянный
Битрейт : 448 Кбит/сек
Каналы : 6 каналов
Расположение каналов : Front: L C R, Side: L R, LFE
Частота : 48,0 КГц
Битовая глубина : 16 бит
Метод сжатия : С потерями
Размер потока : 334 Мбайт (8%)
Заголовок : Original
Язык : English
Default : Нет
Forced : Нет
Текст #1
Идентификатор : 5
Формат : UTF-8
Идентификатор кодека : S_TEXT/UTF8
Идентификатор кодека/Информация : UTF-8 Plain Text
Заголовок : Russian
Язык : Russian
Default : Да
Forced : Нет
Текст #2
Идентификатор : 6
Формат : UTF-8
Идентификатор кодека : S_TEXT/UTF8
Идентификатор кодека/Информация : UTF-8 Plain Text
Заголовок : Commentary
Язык : Russian
Default : Нет
Forced : Нет
Текст #3
Идентификатор : 7
Формат : ASS
Идентификатор кодека : S_TEXT/ASS
Идентификатор кодека/Информация : Advanced Sub Station Alpha
Метод сжатия : Без потерь
Заголовок : English
Язык : English
Default : Нет
Forced : Нет
Текст #4
Идентификатор : 8
Формат : UTF-8
Идентификатор кодека : S_TEXT/UTF8
Идентификатор кодека/Информация : UTF-8 Plain Text
Default : Нет
Forced : Нет

Скриншоты

Форсаж 4 / Fast & Furious

Форсаж 4 / Fast & Furious
«Новые тачки. Старая команда.»
Страна: США
Производство: Neal H. Moritz Productions, One Race Productions, Original Film, Relativity Media, Universal Pictures
Жанр: криминал, боевик, триллер, драма
Год выпуска: 2009
Продолжительность: 01:46:45
Перевод #1: Профессиональный (полное дублирование)
Перевод #2: Авторский (одноголосый закадровый) - Ю.Немахов
Субтитры: Русские (2 вида), Русские (Forced), Русские (Комментарии), Английские
Формат субтитров: softsub (SRT)
Оригинальная аудиодорожка: английский
Режиссер: Джастин Лин / Justin Lin
В ролях: Вин Дизель, Пол Уокер, Джордана Брюстер, Мишель Родригес, Джон Ортиз, Лас Алонсо, Гал Гадот, Джек Конли, Ши Уигхэм, Лиза Лапира
Описание: Когда кривая дорожка заставляет скрывающегося от правосудия Дома Торетто вернуться в Лос-Анджелес, вражда с агентом Брайаном О’Коннером вспыхивает с новой силой. Но у парочки обнаруживается общий противник, и Дому с Брайаном приходится заключить перемирие в надежде одержать над ним победу. Грабя конвои, роя подкопы и пересекая границы, они приходят к идеальной форме отмщения — педали газа, вдавленной до упора.

Автор рипа:
Качество: BDRip-AVC | исх. Форсаж 4 / Fast & Furious (2009) Blu-ray CEE 1080p VC-1 DTS 5.1-EiMi
Формат: MKV
Видео кодек: H.264
Аудио кодек: AC3
Видео: 1152x480 (2,40:1), 23,976 fps, H.264 ~4 400 kbps avg, 0.301 bit/pixel
Аудио 1: 48 kHz, AC3, 3/2 (L,C,R,l,r) + LFE ch, ~448.00 kbps avg | Профессиональный (полное дублирование)
Аудио 2: 48 kHz, AC3, 3/2 (L,C,R,l,r) + LFE ch, ~448.00 kbps avg | Авторский (одноголосый закадровый) - Ю.Немахов
Аудио 3: 48 kHz, AC3, 3/2 (L,C,R,l,r) + LFE ch, ~448.00 kbps avg | Оригинал (английский)
Премьера (мир) - 12 марта 2009
Премьера (РФ) - 9 апреля 2009, «UPI»

MediaInfo | Log x264

Log x264

avs [info]: 1152x480p 1:1 @ 2997/125 fps (cfr)
x264 [info]: using SAR=1/1
x264 [info]: using cpu capabilities: MMX2 SSE2Fast SSSE3 FastShuffle SSE4.2 AVX
x264 [info]: profile High, level 4.1
x264 [info]: frame I:1294 Avg QP:15.45 size: 85655
x264 [info]: frame P:32043 Avg QP:16.98 size: 41276
x264 [info]: frame B:109678 Avg QP:19.38 size: 16820
x264 [info]: consecutive B-frames: 3.1% 3.9% 7.7% 20.0% 14.0% 38.3% 4.4% 2.8% 1.3% 2.1% 0.6% 0.8% 0.4% 0.6%
x264 [info]: mb I I16..4: 17.0% 64.1% 18.8%
x264 [info]: mb P I16..4: 3.2% 19.8% 2.5% P16..4: 23.7% 33.7% 12.3% 2.9% 0.2% skip: 1.6%
x264 [info]: mb B I16..4: 0.2% 2.7% 0.2% B16..8: 38.6% 24.0% 4.3% direct: 7.0% skip:23.0% L0:42.5% L1:43.7% BI:13.8%
x264 [info]: 8x8 transform intra:79.0% inter:52.8%
x264 [info]: coded y,uvDC,uvAC intra: 94.5% 89.4% 77.7% inter: 35.4% 27.2% 11.6%
x264 [info]: i16 v,h,dc,p: 7% 6% 23% 64%
x264 [info]: i8 v,h,dc,ddl,ddr,vr,hd,vl,hu: 8% 11% 11% 9% 12% 11% 13% 11% 14%
x264 [info]: i4 v,h,dc,ddl,ddr,vr,hd,vl,hu: 8% 11% 5% 9% 15% 13% 14% 11% 14%
x264 [info]: i8c dc,h,v,p: 48% 21% 13% 18%
x264 [info]: Weighted P-Frames: Y:2.9% UV:1.7%
x264 [info]: ref P L0: 45.6% 7.7% 18.9% 7.5% 6.1% 4.3% 3.8% 2.1% 2.0% 1.7% 0.3% 0.0%
x264 [info]: ref B L0: 72.4% 12.8% 6.0% 3.0% 2.1% 1.7% 1.3% 0.6% 0.2%
x264 [info]: ref B L1: 92.2% 7.8%
x264 [info]: kb/s:4396.62
encoded 143015 frames, 2.83 fps, 4396.62 kb/s
Общее
UniqueID/String : 170360670101181571343832160485722988352 (0x802A4586E197A3AE99179E68367E9F40)
CompleteName : D:\my rips\Fast.&.Furious.4.2009.BDRip-AVC.DUB.AVO.ORG.SUBs.by.zOJIOtOi.mkv
Format : Matroska
Format_Version : Version 2
FileSize/String : 4,06 Гбайт
Duration/String : 1 ч. 46 м.
OverallBitRate/String : 5441 Кбит/сек
Encoded_Date : UTC 2013-07-22 06:59:57
Encoded_Application : mkvmerge v5.8.0 ('No Sleep / Pillow') built on Sep 2 2012 15:37:04
Encoded_Library/String : libebml v1.2.3 + libmatroska v1.3.0
Видео
ID/String : 1
Format : AVC
Format/Info : Advanced Video Codec
Format_Profile : High@L4.1
Format_Settings_CABAC/String : Да
Format_Settings_RefFrames/String : 10 кадров
CodecID : V_MPEG4/ISO/AVC
Duration/String : 1 ч. 46 м.
BitRate/String : 4400 Кбит/сек
Width/String : 1152 пикселя
Height/String : 480 пикселей
DisplayAspectRatio/String : 2,40:1
FrameRate_Mode/String : Постоянный
FrameRate/String : 23,976 кадра/сек
ColorSpace : YUV
ChromaSubsampling : 4:2:0
BitDepth/String : 8 бит
ScanType/String : Прогрессивная
Bits-(Pixel*Frame) : 0.301
StreamSize/String : 2,97 Гбайт (73%)
Title : Fast.&.Furious.4.2009.BDRip-AVC.by.zOJIOtOi
Encoded_Library/String : x264 core 125 r2208 d9d2288
Encoded_Library_Settings : cabac=1 / ref=10 / deblock=1:-3:-3 / analyse=0x3:0x133 / me=umh / subme=11 / psy=1 / psy_rd=1.00:0.15 / mixed_ref=1 / me_range=48 / chroma_me=1 / trellis=2 / 8x8dct=1 / cqm=0 / deadzone=21,11 / fast_pskip=1 / chroma_qp_offset=-3 / threads=6 / lookahead_threads=1 / sliced_threads=0 / nr=0 / decimate=1 / interlaced=0 / bluray_compat=0 / constrained_intra=0 / bframes=13 / b_pyramid=2 / b_adapt=2 / b_bias=0 / direct=1 / weightb=1 / open_gop=0 / weightp=2 / keyint=250 / keyint_min=23 / scenecut=40 / intra_refresh=0 / rc_lookahead=60 / rc=crf / mbtree=0 / crf=17.6 / qcomp=0.60 / qpmin=0 / qpmax=69 / qpstep=4 / vbv_maxrate=50000 / vbv_bufsize=62500 / crf_max=0.0 / nal_hrd=none / ip_ratio=1.40 / pb_ratio=1.30 / aq=2:1.00
Language/String : English
Default/String : Да
Forced/String : Нет
Аудио #1
ID/String : 2
Format : AC-3
Format/Info : Audio Coding 3
Format_Settings_ModeExtension : CM (complete main)
Format_Settings_Endianness : Big
CodecID : A_AC3
Duration/String : 1 ч. 46 м.
BitRate_Mode/String : Постоянный
BitRate/String : 448 Кбит/сек
Channel(s)/String : 6 каналов
ChannelPositions : Front: L C R, Side: L R, LFE
SamplingRate/String : 48,0 КГц
BitDepth/String : 16 бит
Compression_Mode/String : С потерями
StreamSize/String : 342 Мбайт (8%)
Title : Dub
Language/String : Russian
Default/String : Да
Forced/String : Нет
Аудио #2
ID/String : 3
Format : AC-3
Format/Info : Audio Coding 3
Format_Settings_ModeExtension : CM (complete main)
Format_Settings_Endianness : Big
CodecID : A_AC3
Duration/String : 1 ч. 46 м.
BitRate_Mode/String : Постоянный
BitRate/String : 448 Кбит/сек
Channel(s)/String : 6 каналов
ChannelPositions : Front: L C R, Side: L R, LFE
SamplingRate/String : 48,0 КГц
BitDepth/String : 16 бит
Compression_Mode/String : С потерями
StreamSize/String : 342 Мбайт (8%)
Title : AVO-Nemahov
Language/String : Russian
Default/String : Нет
Forced/String : Нет
Аудио #3
ID/String : 4
Format : AC-3
Format/Info : Audio Coding 3
Format_Settings_ModeExtension : CM (complete main)
Format_Settings_Endianness : Big
CodecID : A_AC3
Duration/String : 1 ч. 46 м.
BitRate_Mode/String : Постоянный
BitRate/String : 448 Кбит/сек
Channel(s)/String : 6 каналов
ChannelPositions : Front: L C R, Side: L R, LFE
SamplingRate/String : 48,0 КГц
BitDepth/String : 16 бит
Compression_Mode/String : С потерями
StreamSize/String : 342 Мбайт (8%)
Title : Original
Language/String : English
Default/String : Нет
Forced/String : Нет
Текст #1
ID/String : 5
Format : UTF-8
CodecID : S_TEXT/UTF8
CodecID/Info : UTF-8 Plain Text
Title : Russian
Language/String : Russian
Default/String : Да
Forced/String : Нет
Текст #2
ID/String : 6
Format : UTF-8
CodecID : S_TEXT/UTF8
CodecID/Info : UTF-8 Plain Text
Title : Russian
Language/String : Russian
Default/String : Нет
Forced/String : Нет
Текст #3
ID/String : 7
Format : UTF-8
CodecID : S_TEXT/UTF8
CodecID/Info : UTF-8 Plain Text
Title : Russian (Forced)
Language/String : Russian
Default/String : Нет
Forced/String : Нет
Текст #4
ID/String : 8
Format : ASS
CodecID : S_TEXT/ASS
CodecID/Info : Advanced Sub Station Alpha
Compression_Mode/String : Без потерь
Title : Commentary
Language/String : Russian
Default/String : Нет
Forced/String : Нет
Текст #5
ID/String : 9
Format : UTF-8
CodecID : S_TEXT/UTF8
CodecID/Info : UTF-8 Plain Text
Title : English
Language/String : English
Default/String : Нет
Forced/String : Нет

Скриншоты

Форсаж 5 / Fast Five

Форсаж 5 / Fast Five
«Всё решает скорость, всё решает команда»
Страна: США
Производство: Original Film
Жанр: боевик, триллер, криминал
Год выпуска: 2011
Продолжительность: 02:10:21
Перевод #1: Профессиональный (полное дублирование)
Субтитры: Русские (Full), Русские, Английские
Формат субтитров: softsub (SRT)
Оригинальная аудиодорожка: английский
Режиссер: Джастин Лин | Justin Lin
В ролях: Вин Дизель, Пол Уокер, Дуэйн Джонсон, Джордана Брюстер, Тайриз Гибсон, Лудакрис, Мэтт Шульце, Санг Кенг, Гал Гадот, Тего Калдерон, Дон Омар
Описание: Бывший полицейский Брайан О`Коннер вместе с бывалым лихачом Домиником Торетто совсем немного увлеклись жизнью вне закона. После того, как Брайан и Миа Торетто освободили Доминика, они не рискуют долго задерживаться на одном месте, так как являются желанной целью порядком недовольных копов.

Автор рипа:
Качество: BDRip-AVC | исх. Форсаж 5 / Fast Five (2011) Blu-ray CEE 1080p AVC DTS 5.1
Формат: MKV
Видео кодек: H.264
Аудио кодек: AC3
Видео: 1152x488 (2.35:1), 23,976 fps, H.264 ~3 894 kbps avg, 0.289 bit/pixel
Аудио 1: 48 kHz, AC3, 3/2 (L,C,R,l,r) + LFE ch, ~448.00 kbps avg | Профессиональный (полное дублирование)
Аудио 2: 48 kHz, AC3, 3/2 (L,C,R,l,r) + LFE ch, ~448.00 kbps avg | Оригинал (английский)
Премьера (мир) - 15 апреля 2011
Премьера (РФ) - 28 апреля 2011, «UPI»

MediaInfo | Log x264

Log x264

avs [info]: 1152x488p 1:1 @ 2500000/104271 fps (cfr)
x264 [info]: using SAR=1/1
x264 [info]: using cpu capabilities: MMX2 SSE2Fast SSSE3 FastShuffle SSE4.2 AVX
x264 [info]: profile High, level 4.1
x264 [info]: frame I:1746 Avg QP:17.33 size: 85599
x264 [info]: frame P:44778 Avg QP:19.47 size: 31829
x264 [info]: frame B:140998 Avg QP:20.62 size: 15823
x264 [info]: consecutive B-frames: 4.1% 4.8% 10.8% 17.0% 15.7% 34.4% 6.9% 1.5% 1.6% 1.0% 0.8% 0.3% 0.4% 0.7%
x264 [info]: mb I I16..4: 16.4% 62.8% 20.9%
x264 [info]: mb P I16..4: 1.4% 15.1% 2.1% P16..4: 28.0% 35.3% 11.3% 2.3% 0.2% skip: 4.2%
x264 [info]: mb B I16..4: 0.1% 2.5% 0.2% B16..8: 37.5% 22.1% 4.2% direct: 7.0% skip:26.4% L0:42.7% L1:44.2% BI:13.1%
x264 [info]: 8x8 transform intra:80.9% inter:58.2%
x264 [info]: direct mvs spatial:98.4% temporal:1.6%
x264 [info]: coded y,uvDC,uvAC intra: 93.4% 85.6% 64.7% inter: 33.3% 24.1% 4.9%
x264 [info]: i16 v,h,dc,p: 13% 11% 19% 57%
x264 [info]: i8 v,h,dc,ddl,ddr,vr,hd,vl,hu: 10% 10% 9% 9% 13% 11% 14% 10% 14%
x264 [info]: i4 v,h,dc,ddl,ddr,vr,hd,vl,hu: 12% 11% 4% 9% 14% 12% 14% 10% 13%
x264 [info]: i8c dc,h,v,p: 40% 26% 16% 18%
x264 [info]: Weighted P-Frames: Y:3.0% UV:1.7%
x264 [info]: ref P L0: 47.3% 9.7% 18.9% 6.5% 5.4% 3.6% 3.3% 1.7% 1.7% 1.4% 0.4% 0.0%
x264 [info]: ref B L0: 71.6% 13.3% 6.1% 3.1% 2.2% 1.7% 1.3% 0.5% 0.2%
x264 [info]: ref B L1: 91.9% 8.1%
x264 [info]: kb/s:3892.64
encoded 187522 frames, 3.06 fps, 3892.64 kb/s
Общее
Уникальный идентификатор : 206528093630372430194380332807735258213 (0x9B5FDD2E5134851F84111DF75C04AC65)
Полное имя : D:\my rips\Fast.Five.2011.BDRip-AVC.DUB.ORG.SUBs.by.zOJIOtOi.mkv
Формат : Matroska
Версия формата : Version 2
Размер файла : 4,36 Гбайт
Продолжительность : 2 ч. 10 м.
Общий поток : 4791 Кбит/сек
Дата кодирования : UTC 2013-07-23 13:42:53
Программа кодирования : mkvmerge v5.8.0 ('No Sleep / Pillow') built on Sep 2 2012 15:37:04
Библиотека кодирования : libebml v1.2.3 + libmatroska v1.3.0
Видео
Идентификатор : 1
Формат : AVC
Формат/Информация : Advanced Video Codec
Профиль формата : High@L4.1
Параметр CABAC формата : Да
Параметр ReFrames формата : 10 кадров
Идентификатор кодека : V_MPEG4/ISO/AVC
Продолжительность : 2 ч. 10 м.
Битрейт : 3894 Кбит/сек
Ширина : 1152 пикселя
Высота : 488 пикселей
Соотношение сторон : 2,35:1
Режим частоты кадров : Постоянный
Частота кадров : 23,976 кадра/сек
Цветовое пространство : YUV
Субдискретизация насыщенности : 4:2:0
Битовая глубина : 8 бит
Тип развёртки : Прогрессивная
Бит/(Пиксели*Кадры) : 0.289
Размер потока : 3,46 Гбайт (79%)
Заголовок : Fast.Five.2011.BDRip-AVC.by.zOJIOtOi
Библиотека кодирования : x264 core 125 r2208 d9d2288
Настройки программы : cabac=1 / ref=10 / deblock=1:-3:-3 / analyse=0x3:0x133 / me=umh / subme=11 / psy=1 / psy_rd=1.00:0.15 / mixed_ref=1 / me_range=48 / chroma_me=1 / trellis=2 / 8x8dct=1 / cqm=0 / deadzone=21,11 / fast_pskip=1 / chroma_qp_offset=-3 / threads=6 / lookahead_threads=1 / sliced_threads=0 / nr=0 / decimate=1 / interlaced=0 / bluray_compat=0 / constrained_intra=0 / bframes=13 / b_pyramid=2 / b_adapt=2 / b_bias=0 / direct=3 / weightb=1 / open_gop=0 / weightp=2 / keyint=250 / keyint_min=23 / scenecut=40 / intra_refresh=0 / rc_lookahead=60 / rc=2pass / mbtree=0 / bitrate=3894 / ratetol=1.0 / qcomp=0.60 / qpmin=0 / qpmax=69 / qpstep=4 / cplxblur=20.0 / qblur=0.5 / vbv_maxrate=50000 / vbv_bufsize=62500 / nal_hrd=none / ip_ratio=1.40 / pb_ratio=1.30 / aq=2:1.00
Язык : English
Default : Да
Forced : Нет
Аудио #1
Идентификатор : 2
Формат : AC-3
Формат/Информация : Audio Coding 3
Расширение режима : CM (complete main)
Параметр Endianness формата : Big
Идентификатор кодека : A_AC3
Продолжительность : 2 ч. 10 м.
Вид битрейта : Постоянный
Битрейт : 448 Кбит/сек
Каналы : 6 каналов
Расположение каналов : Front: L C R, Side: L R, LFE
Частота : 48,0 КГц
Битовая глубина : 16 бит
Метод сжатия : С потерями
Размер потока : 418 Мбайт (9%)
Заголовок : Dub
Язык : Russian
Default : Да
Forced : Нет
Аудио #2
Идентификатор : 3
Формат : AC-3
Формат/Информация : Audio Coding 3
Расширение режима : CM (complete main)
Параметр Endianness формата : Big
Идентификатор кодека : A_AC3
Продолжительность : 2 ч. 10 м.
Вид битрейта : Постоянный
Битрейт : 448 Кбит/сек
Каналы : 6 каналов
Расположение каналов : Front: L C R, Side: L R, LFE
Частота : 48,0 КГц
Битовая глубина : 16 бит
Метод сжатия : С потерями
Размер потока : 418 Мбайт (9%)
Заголовок : Original
Язык : English
Default : Нет
Forced : Нет
Текст #1
Идентификатор : 4
Формат : UTF-8
Идентификатор кодека : S_TEXT/UTF8
Идентификатор кодека/Информация : UTF-8 Plain Text
Заголовок : Russian (Full)
Язык : Russian
Default : Да
Forced : Нет
Текст #2
Идентификатор : 5
Формат : UTF-8
Идентификатор кодека : S_TEXT/UTF8
Идентификатор кодека/Информация : UTF-8 Plain Text
Заголовок : Russian
Язык : Russian
Default : Нет
Forced : Нет
Текст #3
Идентификатор : 6
Формат : UTF-8
Идентификатор кодека : S_TEXT/UTF8
Идентификатор кодека/Информация : UTF-8 Plain Text
Заголовок : English
Язык : English
Default : Нет
Forced : Нет

Скриншоты

[Цитировать]

Пилил для себя в коллекцию, решил поделиться=) ВСЕМ ЛЮБИТЕЛЯМ ФОРСАЖА ПРИЯТНОГО ПРОСМОТРА!

Комментарий от Sirocco


Молодец))

[Цитировать]

Раздача крутая, рипы замечательные!

[Цитировать]



Показать сообщения:    

Текущее время: 10-Дек 04:16

Часовой пояс: UTC + 3


Вы не можете начинать темы
Вы не можете отвечать на сообщения
Вы не можете редактировать свои сообщения
Вы не можете удалять свои сообщения
Вы не можете голосовать в опросах
Вы не можете прикреплять файлы к сообщениям
Вы не можете скачивать файлы

!ВНИМАНИЕ!
Сайт не предоставляет электронные версии произведений, а занимается лишь коллекционированием и каталогизацией ссылок, присылаемых и публикуемых на форуме нашими читателями. Если вы являетесь правообладателем какого-либо представленного материала и не желаете, чтобы ссылка на него находилась в нашем каталоге, свяжитесь с нами, и мы незамедлительно удалим ее. Файлы для обмена на трекере предоставлены пользователями сайта, и администрация не несет ответственности за их содержание. Просьба не заливать файлы, защищенные авторскими правами, а также файлы нелегального содержания!