[ Сегодня идет свободное скачивание без начисления Download ]


Статистика раздачи
Нет
 
   
 
Top  
 
 
Отель "Президент" Инфо:
Год выхода: 2013
Жанр: мелодрама
Выпущено: Россия, компания "Телеоблик"
Дополнительно: рекламы нет
Озвучивание: Оригинальное
Режиссер: Илья Хотиненко
В ролях: Александра Урсуляк, Юрий Батурин, Дмитрий Ульянов, Михаил Полицеймако, Александр Баширов, Денис Бургазлиев, Ксения Рябинкина, Ирина Чипиженко, Владимир Грамматиков
О фильме:
История начинается в г. Москве в загородном доме главной героини Марии (Александра Урсуляк) и ее мужа Андрея (Дмитрий Ульянов). Мария больше не желает прощать измены и уходит от Андрея. Уговоры старенькой няни Андрея Нюши (Ирина Чипиженко) остаться Маша отклоняет. Ближайшую ночь Мария проведет в одном из отелей Москвы, а ранним утром она уедет к своей любимой крестной Евочке (Ксения Рябинкина) в родной Нижний Новгород. В отеле Маша встречает свою давнюю любовь Бориса (Юрий Батурин), который на этом же поезде возвращается после командировки домой. Еще несколько будущих героев фильма являются пассажирами этого поезда: это всемирно известный скрипач Волин (Денис Бургазлиев) и его директор Марк (Юрий Тарасов) (великий Волин дает всего два концерта в Нижнем); Игорь Трайнин (Сергей Беляев), который едет на свадьбу к сыну; Константин (Михаил Полицеймако), он спешит на свидание к любимой женщине и адвокат Арсеньев (Борис Миронов), у которого неприятная миссия, связанная со скандальным разводом одного из его клиентов.
[kp]774513[/kp]-Файл:
Продолжительность: 00:45:00 серия
Формат: AVI
Качество: HDTVRip
Видео: 720x400 (1.80:1), 25 fps, XviD build 50 ~1582 kbps avg, 0.22 bit/pixel
Аудио: 48 kHz, MPEG Layer 3, 2 ch, ~192.00 kbps avg
Внешний сид!-

Внимание!

Внимание! Раздача ведется путем добавления новых серий! При каждом добавлении создаётся новый торент. Чтобы начать скачивание новой серии, Вам необходимо сделать следующее:
(1) остановить скачивание,
(2) удалить старый торрент у себя из клиента (старые серии удалять не надо),
(3) скачать новый торрент и запустить его у себя в клиенте вместо старого, при этом указать клиенту путь в старую папку куда и должно происходить скачивание новых серий.
Ваш клиент при этом должен произвести хеширование (проверку) старой папки (если не производит сам - помогите ему сделать это), и будет докачивать только те серии которых у вас ещё нет. Старые серии при этом не удаляются, а продолжают раздаваться!
Eсли вы уже удалили старые серии, то предотвратить повторную закачку старых серий можно, отжав галочку в соответствующих местах при запуске нового торрента.
По возможности, желательно не удалять старые серии как можно дольше чтобы релизёр не столько продолжал раздавать старые серии, а смог сконцентрироваться на новых.
-

MediaInfo


General
Complete name                            : D:\Мои видеозаписи\Otel.Prezident.2013.XviD.HDTVRip.[mgt]\Otel.Prezident.02.seriya..2013.XviD.HDTVRip.avi
Format                                   : AVI
Format/Info                              : Audio Video Interleave
File size                                : 550 MiB
Duration                                 : 44mn 34s
Overall bit rate                         : 1 724 Kbps
Writing application                      : VirtualDubMod 1.5.10.3 | www.virtualdub-fr.org || (build 2550/release)
Writing library                          : VirtualDubMod build 2550/release
Video
ID                                       : 0
Format                                   : MPEG-4 Visual
Format profile                           : Advanced Simple@L5
Format settings, BVOP                    : 1
Format settings, QPel                    : No
Format settings, GMC                     : No warppoints
Format settings, Matrix                  : Default (H.263)
Codec ID                                 : XVID
Codec ID/Hint                            : XviD
Duration                                 : 44mn 34s
Bit rate                                 : 1 523 Kbps
Width                                    : 720 pixels
Height                                   : 400 pixels
Display aspect ratio                     : 16:9
Frame rate                               : 25.000 fps
Color space                              : YUV
Chroma subsampling                       : 4:2:0
Bit depth                                : 8 bits
Scan type                                : Progressive
Compression mode                         : Lossy
Bits/(Pixel*Frame)                       : 0.211
Stream size                              : 485 MiB (88%)
Writing library                          : XviD 1.2.1 (UTC 2008-12-04)
Audio
ID                                       : 1
Format                                   : AC-3
Format/Info                              : Audio Coding 3
Mode extension                           : CM (complete main)
Format settings, Endianness              : Big
Codec ID                                 : 2000
Duration                                 : 44mn 34s
Bit rate mode                            : Constant
Bit rate                                 : 192 Kbps
Channel(s)                               : 2 channels
Channel positions                        : Front: L R
Sampling rate                            : 48.0 KHz
Bit depth                                : 16 bits
Compression mode                         : Lossy
Stream size                              : 61.2 MiB (11%)
Alignment                                : Split accross interleaves
Interleave, duration                     : 40 ms (1.00 video frame)
Interleave, preload duration             : 500 ms


[Цитировать]



Показать сообщения:    

Текущее время: 09-Дек 18:32

Часовой пояс: UTC + 3


Вы не можете начинать темы
Вы не можете отвечать на сообщения
Вы не можете редактировать свои сообщения
Вы не можете удалять свои сообщения
Вы не можете голосовать в опросах
Вы не можете прикреплять файлы к сообщениям
Вы не можете скачивать файлы

!ВНИМАНИЕ!
Сайт не предоставляет электронные версии произведений, а занимается лишь коллекционированием и каталогизацией ссылок, присылаемых и публикуемых на форуме нашими читателями. Если вы являетесь правообладателем какого-либо представленного материала и не желаете, чтобы ссылка на него находилась в нашем каталоге, свяжитесь с нами, и мы незамедлительно удалим ее. Файлы для обмена на трекере предоставлены пользователями сайта, и администрация не несет ответственности за их содержание. Просьба не заливать файлы, защищенные авторскими правами, а также файлы нелегального содержания!