[ Сегодня идет свободное скачивание без начисления Download ]


Статистика раздачи
Нет
 
   
 
Top  
 
 
-Однажды двадцать лет спустя (1980) DVDRip Русское название: Однажды двадцать лет спустя
Год выпуска: 1980
Жанр: Мелодрама
Описание фильма: Они встретились после выпуска бывшего 10"А" через 20 лет. Среди собравшихся - всеобщая любимица, а ныне мать десяти детей - Надежда Круглова. Одноклассники рассказывают о себе, участвуя в съемках телевизионной программы.
Режиссер: Юрий Егоров
Актеры: Наталья Гундарева, Виктор Проскурин, Евгений Лазарев, Олег Ефремов, Валентина Титова, Александр Потапов, Игорь Ясулович, Валентин Смирнитский, Ольга Гобзева, Елена Чухрай, Андрей Юренев, Инга Будкевич, Марина Яковлева, Сережа Белов, Татьяна Назарова (III), Алексей Ясулович, Дарья Мальчевская, Максим Пучков, Таня Бурвикова, Елена Борзунова, Костя Сиваев, Витя Плаксин, Дима Моряшев, Оля Остапенко, Мария Пискунова, Наташа Земцова, Миша Ипатенко, Олеся Лосева, Наташа Андреева, Женя Селиванов, Алеша Акмальдинов
Продолжительность: 01:13:36

Видеокодек: MPEG4/ISO/AVC
Формат видео: MKV
Битрейт видео:~2379 Kbps
Размер кадра: 700x432@984x432
Качество видео: DVDRip
Аудиокодек: AC-3, Front: L C R, Side: L R, LFE, 6ch
Битрейт аудио: 448 Kbps

MI

Общее
Уникальный идентификатор : 238420085153955432157274852086547699186 (0xB35E09C328A1DFB9BD631D8711C755F2)
Полное имя : C:\Однажды двадцать лет спустя.mkv
Формат : Matroska
Версия формата : Version 2
Размер файла : 1,45 Гбайт
Продолжительность : 1 ч. 13 м.
Общий поток : 2829 Кбит/сек
Название фильма : «Однажды двадцать лет спустя»
Дата кодирования : UTC 2012-12-02 19:31:21
Программа кодирования : mkvmerge v5.8.0 ('No Sleep / Pillow') built on Sep 2 2012 15:37:04
Библиотека кодирования : libebml v1.2.3 + libmatroska v1.3.0
Видео
Идентификатор : 1
Формат : AVC
Формат/Информация : Advanced Video Codec
Профиль формата : High@L4.1
Параметр CABAC формата : Да
Параметр ReFrames формата : 16 кадров
Идентификатор кодека : V_MPEG4/ISO/AVC
Продолжительность : 1 ч. 13 м.
Битрейт : 2379 Кбит/сек
Ширина : 700 пикселей
Высота : 432 пикселя
Соотношение сторон : 2,25:1
Соотношение сторон в оригинале : 2,25:1
Частота кадров : 25,000 кадров/сек
Цветовое пространство : YUV
Субдискретизация насыщенности : 4:2:0
Битовая глубина : 8 бит
Тип развёртки : Прогрессивная
Бит/(Пиксели*Кадры) : 0.315
Размер потока : 1,20 Гбайт (82%)
Заголовок : Однажды двадцать лет спустя.1980
Библиотека кодирования : x264 core 125 r2200 999b753
Настройки программы : cabac=1 / ref=16 / deblock=1:-1:-1 / analyse=0x3:0x133 / me=umh / subme=11 / psy=1 / psy_rd=1.00:0.15 / mixed_ref=1 / me_range=48 / chroma_me=1 / trellis=2 / 8x8dct=1 / cqm=0 / deadzone=21,11 / fast_pskip=0 / chroma_qp_offset=-3 / threads=12 / lookahead_threads=2 / sliced_threads=0 / nr=0 / decimate=0 / interlaced=0 / bluray_compat=0 / constrained_intra=0 / bframes=8 / b_pyramid=2 / b_adapt=2 / b_bias=0 / direct=3 / weightb=1 / open_gop=0 / weightp=2 / keyint=250 / keyint_min=25 / scenecut=40 / intra_refresh=0 / rc_lookahead=60 / rc=2pass / mbtree=1 / bitrate=2379 / ratetol=1.0 / qcomp=0.60 / qpmin=0 / qpmax=69 / qpstep=4 / cplxblur=20.0 / qblur=0.5 / vbv_maxrate=50000 / vbv_bufsize=62500 / nal_hrd=none / ip_ratio=1.40 / aq=1:1.10
Язык : Russian
Default : Да
Forced : Нет
Основные цвета : BT.470-6 System B, BT.470-6 System G, BT.601-6 625, BT.1358 625, BT.1700 625 PAL, BT.1700 625 SECAM
Характеристики трансфера : BT.470-6 System B, BT.470-6 System G
Коэффициенты матрицы : BT.470-6 System B, BT.470-6 System G, BT.601-6 625, BT.1358 625, BT.1700 625 PAL, BT.1700 625 SECAM, IEC 61966-2-4 601
Аудио
Идентификатор : 2
Формат : AC-3
Формат/Информация : Audio Coding 3
Расширение режима : CM (complete main)
Идентификатор кодека : A_AC3
Продолжительность : 1 ч. 13 м.
Вид битрейта : Постоянный
Битрейт : 448 Кбит/сек
Каналы : 6 каналов
Расположение каналов : Front: L C R, Side: L R, LFE
Частота : 48,0 КГц
Битовая глубина : 16 бит
Метод сжатия : С потерями
Размер потока : 236 Мбайт (16%)
Заголовок : Оригинал: AC-3; 16 bit 48 Khz; 6ch 448 Kbps; CBR.
Язык : Russian
Default : Да
Forced : Нет
Скриншоты:

[Цитировать]



Показать сообщения:    

Текущее время: 08-Дек 23:11

Часовой пояс: UTC + 3


Вы не можете начинать темы
Вы не можете отвечать на сообщения
Вы не можете редактировать свои сообщения
Вы не можете удалять свои сообщения
Вы не можете голосовать в опросах
Вы не можете прикреплять файлы к сообщениям
Вы не можете скачивать файлы

!ВНИМАНИЕ!
Сайт не предоставляет электронные версии произведений, а занимается лишь коллекционированием и каталогизацией ссылок, присылаемых и публикуемых на форуме нашими читателями. Если вы являетесь правообладателем какого-либо представленного материала и не желаете, чтобы ссылка на него находилась в нашем каталоге, свяжитесь с нами, и мы незамедлительно удалим ее. Файлы для обмена на трекере предоставлены пользователями сайта, и администрация не несет ответственности за их содержание. Просьба не заливать файлы, защищенные авторскими правами, а также файлы нелегального содержания!