[ Сегодня идет свободное скачивание без начисления Download ]


Статистика раздачи
Нет
 
   
 
Top  
 
 
-Дайте жалобную книгу (1965) [H.264] DVDRip- Русское название: Дайте жалобную книгу
Оригинальное название: Дайте жалобную книгу
Год выпуска: 1965
Страна: СССР, Мосфильм
Жанр: криминал, детектив, приключения
Субтитры: отсутствуют-
Дата премьеры: 26 апреля 1965

Режиссер: Эльдар Рязанов
Сценарий: Александр Галич, Борис Ласкин, Эльдар Рязанов
Актеры: Олег Борисов, Лариса Голубкина, Анатолий Кузнецов, Анатолий Папанов, Николай Крючков, Николай Парфёнов, Татьяна Гаврилова, Нина Агапова, Рина Зелёная, Джемал Сихарулидзе, Микаэла Дроздовская, Наталья Суровегина, Зоя Исаева, Юрий Никулин, Георгий Вицин, Евгений Моргунов

Описание фильма:
Ресторан "Одуванчик" пользуется дурной славой. В нем грязно, готовят невкусно, персонал грубый. Жалобы на директора ресторана Татьяну Шумову следуют одна за другой. О том, как журналисту Юрию Никитину и его друзьям удалось помочь Шумовой и сделать "Одуванчик" образцовым молодежным кафе, рассказывает фильм....-Продолжительность: 01:25:19
Качество видео: DVDRip-AVC
Формат: MKV
Видеокодек: MPEG-4 AVC
Битрейт видео: ~2244 kbps avg, 25,000 fps, 0.224 bit/pixel
Размер кадра: 720 x 576 (4:3)
Аудиокодек: AC3
Аудио: Русский, 48.0 kHz, AC3, 2 ch ~192 Kbps avg

Дополнительно:

«Дайте жалобную книгу» — советский кинофильм, лирическая комедия Э.Рязанова, по сценарию А.Галича и Б.Ласкина.
В фильме звучит песня композитора Анатолия Лепина на стихи А. Галича и Б. Ласкина "Добрый вечер" в исполнении Ларисы Мондрус.

MediaInfo:

Format : Matroska
Format version : Version 2
File size : 1.45 GiB
Duration : 1h 25mn
Overall bit rate : 2 438 Kbps
Encoded date : UTC 2012-07-15 19:02:05
Writing application : mkvmerge v5.7.0 ('The Whirlwind') built on Jul 8 2012 20:08:51
Writing library : libebml v1.2.3 + libmatroska v1.3.0
Video
ID : 1
Format : AVC
Format/Info : Advanced Video Codec
Format profile : [email protected]
Format settings, CABAC : Yes
Format settings, ReFrames : 16 frames
Codec ID : V_MPEG4/ISO/AVC
Duration : 1h 25mn
Bit rate : 2 244 Kbps
Width : 720 pixels
Height : 556 pixels
Display aspect ratio : 1.381
Frame rate : 25.000 fps
Color space : YUV
Chroma subsampling : 4:2:0
Bit depth : 8 bits
Scan type : Progressive
Bits/(Pixel*Frame) : 0.224
Stream size : 1.31 GiB (90%)
Title : Дайте жалобную книгу.1964
Writing library : x264 core 125 r2200 999b753
Encoding settings : cabac=1 / ref=16 / deblock=1:-1:-1 / analyse=0x3:0x133 / me=umh / subme=11 / psy=1 / psy_rd=1.05:0.20 / mixed_ref=1 / me_range=48 / chroma_me=1 / trellis=2 / 8x8dct=1 / cqm=0 / deadzone=21,11 / fast_pskip=0 / chroma_qp_offset=-3 / threads=12 / lookahead_threads=2 / sliced_threads=0 / nr=0 / decimate=0 / interlaced=0 / bluray_compat=0 / constrained_intra=0 / bframes=9 / b_pyramid=2 / b_adapt=2 / b_bias=0 / direct=3 / weightb=1 / open_gop=0 / weightp=2 / keyint=250 / keyint_min=25 / scenecut=40 / intra_refresh=0 / rc_lookahead=60 / rc=2pass / mbtree=1 / bitrate=2244 / ratetol=1.0 / qcomp=0.60 / qpmin=0 / qpmax=69 / qpstep=4 / cplxblur=20.0 / qblur=0.5 / vbv_maxrate=50000 / vbv_bufsize=62500 / nal_hrd=none / ip_ratio=1.40 / aq=1:1.00
Language : Russian
Default : Yes
Forced : No
Color primaries : BT.470-6 System B, BT.470-6 System G, BT.601-6 625, BT.1358 625, BT.1700 625 PAL, BT.1700 625 SECAM
Transfer characteristics : BT.470-6 System B, BT.470-6 System G
Matrix coefficients : BT.470-6 System B, BT.470-6 System G, BT.601-6 625, BT.1358 625, BT.1700 625 PAL, BT.1700 625 SECAM, IEC 61966-2-4 601
Audio
ID : 2
Format : AC-3
Format/Info : Audio Coding 3
Mode extension : CM (complete main)
Codec ID : A_AC3
Duration : 1h 25mn
Bit rate mode : Constant
Bit rate : 192 Kbps
Channel(s) : 2 channels
Channel positions : Front: L R
Sampling rate : 48.0 KHz
Bit depth : 16 bits
Compression mode : Lossy
Stream size : 117 MiB (8%)
Title : AC-3; 16 bit 48 Khz; 2ch 192 Kbps; CBR.
Language : Russian
Default : Yes
Forced : No
Скриншоты:

24/7

[Цитировать]



Показать сообщения:    

Текущее время: 04-Дек 21:30

Часовой пояс: UTC + 3


Вы не можете начинать темы
Вы не можете отвечать на сообщения
Вы не можете редактировать свои сообщения
Вы не можете удалять свои сообщения
Вы не можете голосовать в опросах
Вы не можете прикреплять файлы к сообщениям
Вы не можете скачивать файлы

!ВНИМАНИЕ!
Сайт не предоставляет электронные версии произведений, а занимается лишь коллекционированием и каталогизацией ссылок, присылаемых и публикуемых на форуме нашими читателями. Если вы являетесь правообладателем какого-либо представленного материала и не желаете, чтобы ссылка на него находилась в нашем каталоге, свяжитесь с нами, и мы незамедлительно удалим ее. Файлы для обмена на трекере предоставлены пользователями сайта, и администрация не несет ответственности за их содержание. Просьба не заливать файлы, защищенные авторскими правами, а также файлы нелегального содержания!