[ Сегодня идет свободное скачивание без начисления Download ]


Статистика раздачи
Нет
 
   
 
Top  
 
 
-Ночная фиалка- Год выпуска: 2013
Производство: Россия, студия Маркес
Жанр: Комедия, Криминал
Перевод: Не требуется (Русский)
Дата мировой премьеры: 2 июня 2013
Режиссер: Виктория Держицкая
Продюсер: Ирина Кузнецова, Анастасия Щербакова
Актеры: Иван Жидков, Наталья Рудова, Олег Бойко, Валерий Девятых, Анна Масальская, Дмитрий Шевченко, Анатолий Горячев
Описание фильма:
Богатый и влиятельный чиновник содержит любовницу — очень красивую девушку Риту, которую он в свое время вытащил из борделя. Он обеспечил ее всем — квартирой, машиной, деньгами, потребовав взамен лишь одного — верности. Рита, ни капли не любя этого щедрого, но жестокого и циничного человека, соблюдает их «договор», но лишь до того момента, пока не встречает свою настоящую и единственную любовь.
Алеша — студент МГУ, он красивый, умный, добрый, из хорошей семьи, и у него отличные перспективы. Безумно влюбившись в Риту, он закрывает глаза и на ее темное прошлое и на не слишком светлое настоящее. Он знает лишь одно — она самая прекрасная девушка на свете и, упоенный любовью, мечтает о том, чтобы жениться на ней.
Покровитель Риты, узнав о неверности любовницы, отнимает все, чем когда-то одарил, выгоняет. Рита и Алеша селятся в маленьком дачном домике в Подмосковье. Они решают провести здесь лето, а затем Алеша найдет работу, и у них появятся деньги, чтобы снимать квартиру…
СЭМПЛ

Продолжительность: 01:28:42
Качество видео: HDTVRip
Видеокодек: Xvid
Битрейт видео: ~2007 Кбит/сек
Размер кадра: 720x400
Аудиокодек: AC3, 2 канала
Битрейт аудио: 192 Кбит/сек

MediaInfo:

Общее
Полное имя : Nochnaya.fialka.2013.XviD.HDTVRip.avi
Формат : AVI
Формат/Информация : Audio Video Interleave
Размер файла : 1,37 Гбайт
Продолжительность : 1 ч. 28 м.
Общий поток : 2209 Кбит/сек
Программа кодирования : VirtualDubMod 1.5.10.3 | www.virtualdub-fr.org || (build 2550/release)
Библиотека кодирования : VirtualDubMod build 2550/release
Видео
Идентификатор : 0
Формат : MPEG-4 Visual
Профиль формата : Advanced Simple@L5
Параметр BVOP формата : 1
Параметр QPel формата : Нет
Параметр GMC формата : Без точки перехода
Параметр матрицы формата : Default (H.263)
Идентификатор кодека : XVID
Идентификатор кодека/Подсказка : XviD
Продолжительность : 1 ч. 28 м.
Битрейт : 2007 Кбит/сек
Ширина : 720 пикселей
Высота : 400 пикселей
Соотношение сторон : 16:9
Частота кадров : 25,000 кадров/сек
Цветовое пространство : YUV
Субдискретизация насыщенности : 4:2:0
Битовая глубина : 8 бит
Тип развёртки : Прогрессивная
Метод сжатия : С потерями
Бит/(Пиксели*Кадры) : 0.279
Размер потока : 1,24 Гбайт (91%)
Библиотека кодирования : XviD 1.2.1 (UTC 2008-12-04)
Аудио
Идентификатор : 1
Формат : AC-3
Формат/Информация : Audio Coding 3
Расширение режима : CM (complete main)
Параметр Endianness формата : Big
Идентификатор кодека : 2000
Продолжительность : 1 ч. 28 м.
Вид битрейта : Постоянный
Битрейт : 192 Кбит/сек
Каналы : 2 канала
Расположение каналов : Front: L R
Частота : 48,0 КГц
Битовая глубина : 16 бит
Метод сжатия : С потерями
Размер потока : 122 Мбайт (9%)
Выравнивание : Разделение по промежуткам
Продолжительность промежутка : 40 мс. (1,00 видеокадр)
Время предзагрузки промежутка : 500 мс.
Скриншоты:

[Цитировать]

Топик был перенесен из форума Новинки кинопроката в форум Комедия
Henkok



Показать сообщения:    

Текущее время: 07-Дек 00:54

Часовой пояс: UTC + 3


Вы не можете начинать темы
Вы не можете отвечать на сообщения
Вы не можете редактировать свои сообщения
Вы не можете удалять свои сообщения
Вы не можете голосовать в опросах
Вы не можете прикреплять файлы к сообщениям
Вы не можете скачивать файлы

!ВНИМАНИЕ!
Сайт не предоставляет электронные версии произведений, а занимается лишь коллекционированием и каталогизацией ссылок, присылаемых и публикуемых на форуме нашими читателями. Если вы являетесь правообладателем какого-либо представленного материала и не желаете, чтобы ссылка на него находилась в нашем каталоге, свяжитесь с нами, и мы незамедлительно удалим ее. Файлы для обмена на трекере предоставлены пользователями сайта, и администрация не несет ответственности за их содержание. Просьба не заливать файлы, защищенные авторскими правами, а также файлы нелегального содержания!