[ Сегодня идет свободное скачивание без начисления Download ]


Статистика раздачи
Нет
 
   
 
Top  
 
 
-Любовь из пробирки- Русское название: Любовь из пробирки
Год выпуска: 2013
Производство: Россия / «Медиапрофсоюз»
Жанр: Мелодрама
Перевод: Не требуется
Дата российской премьеры: 28 апреля 2013
Режиссер: Илья Хотиненко, Сергей Гиргель
Продюсер: Александр Кушаев, Владимир Игнатьев, Евгений Арендаревич
Актеры: Яна Шивкова, Юрий Батурин, Сергей Комаров, Антон Страшко, Ольга Бурлакова, Татьяна Бовкалова, Андрей Карако
Описание фильма:
Нине слегка за 30. Так и не встретив настоящую любовь, она решает "родить для себя". Только найти нормального кандидата на роль "папы" оказывается не так-то просто. На помощь сестре приходит находчивая Галина, которая работает в центре репродуктивной медицины. Она отбирает самый лучший "генофонд" для своего будущего племянника. Донором становится шикарный и… ничего не подозревающий клиент центра - бизнесмен Валерий Уваров. ЭКО проходит удачно, и на свет появляется Степка. Спустя шесть лет жизнь героини входит в нормальное русло: у нее подрастает сын, находится высокооплачиваемая работа, но… У судьбы на Нину явно свои планы. Неожиданно она узнает, что ее шеф, сухарь и тиран, и есть отец Степки.

Возраст: 12+ |зрителям, достигшим 12 лет|
Продолжительность: 01:39:12
Качество видео: SATRip
Видеокодек: DivX 5
Битрейт видео: ~1850 Кбит/сек
Размер кадра: 704х400
Аудиокодек: MP3, 2 ch
Битрейт аудио: 128 Кбит/с

MediaInfo:

Общее
Полное имя : Любовь из пробирки.2013.SATRip.avi
Формат : AVI
Формат/Информация : Audio Video Interleave
Размер файла : 1,38 Гбайт
Продолжительность : 1 ч. 39 м.
Общий поток : 1988 Кбит/сек
Библиотека кодирования : VirtualDub-MPEG2 build 24600/release
Видео
Идентификатор : 0
Формат : MPEG-4 Visual
Параметр BVOP формата : Да
Параметр QPel формата : Нет
Параметр GMC формата : Без точки перехода
Параметр матрицы формата : Default (H.263)
Идентификатор кодека : DX50
Идентификатор кодека/Подсказка : DivX 5
Продолжительность : 1 ч. 39 м.
Битрейт : 1850 Кбит/сек
Ширина : 704 пикселя
Высота : 400 пикселей
Соотношение сторон : 16:9
Частота кадров : 25,000 кадров/сек
Цветовое пространство : YUV
Субдискретизация насыщенности : 4:2:0
Битовая глубина : 8 бит
Тип развёртки : Прогрессивная
Метод сжатия : С потерями
Бит/(Пиксели*Кадры) : 0.263
Размер потока : 1,28 Гбайт (93%)
Библиотека кодирования : Intel(R) MPEG-4 encoder based on Intel(R) IPP 6.1 build 137.20[6.1.137.763]
Аудио
Идентификатор : 1
Формат : MPEG Audio
Версия формата : Version 1
Профиль формата : Layer 3
Режим : Joint stereo
Расширение режима : MS Stereo
Идентификатор кодека : 55
Идентификатор кодека/Подсказка : MP3
Продолжительность : 1 ч. 39 м.
Вид битрейта : Постоянный
Битрейт : 128 Кбит/сек
Каналы : 2 канала
Частота : 48,0 КГц
Метод сжатия : С потерями
Размер потока : 90,8 Мбайт (6%)
Выравнивание : Разделение по промежуткам
Продолжительность промежутка : 40 мс. (1,00 видеокадр)
Время предзагрузки промежутка : 500 мс.
Библиотека кодирования : LAME3.98.2
Скриншоты:

[Цитировать]



Показать сообщения:    

Текущее время: 10-Дек 00:20

Часовой пояс: UTC + 3


Вы не можете начинать темы
Вы не можете отвечать на сообщения
Вы не можете редактировать свои сообщения
Вы не можете удалять свои сообщения
Вы не можете голосовать в опросах
Вы не можете прикреплять файлы к сообщениям
Вы не можете скачивать файлы

!ВНИМАНИЕ!
Сайт не предоставляет электронные версии произведений, а занимается лишь коллекционированием и каталогизацией ссылок, присылаемых и публикуемых на форуме нашими читателями. Если вы являетесь правообладателем какого-либо представленного материала и не желаете, чтобы ссылка на него находилась в нашем каталоге, свяжитесь с нами, и мы незамедлительно удалим ее. Файлы для обмена на трекере предоставлены пользователями сайта, и администрация не несет ответственности за их содержание. Просьба не заливать файлы, защищенные авторскими правами, а также файлы нелегального содержания!