[ Сегодня идет свободное скачивание без начисления Download ]


Статистика раздачи
Нет
 
   
 
Top  
 
 
-Убойная сила (1-6 сезон, серии 1-57 из 57) (2000-2005) DVDRip- Русское название: Убойная сила
Оригинальное название: Убойная сила
Год выпуска: 2000-2005
Страна: Россия
Жанр: Детектив, криминал
Режиссер: Александр Рогожкин, Виктор Бутурлин, Евгений Татарский, Евгений Аксёнов, Сергей Снежкин, Вячеслав Сорокин, Михаил Брашинский, Сергей Осипьян, Андрей Прошкин
Актеры: Сергей Селин, Константин Хабенский, Андрей Федорцов, Алексей Нилов, Михаил Трухин, Александр Половцев, Евгений Леонов-Гладышев, Николай Лавров, Андрей Ургант, Станислав Садальский, Кирилл Лавров, Эрнст Романов, Виктор Костецкий, Марина Макарова, Александр Тютрюмов, Вилле Хаапасало, Алексей Девотченко, Евгений Филатов, Ольга Калмыкова, Роман Нечаев, Ольга Онищенко, Сергей Русскин, Георгий Штиль, Виктор Смирнов, Николай Устинов, Артур Ваха, Михаил Вассербаум, Марина Засухина, Оксана Базилевич, Игорь Головин, Александр Лазарев, Анвар Либабов-
Описание фильма: В центре сюжета оперативные сотрудники районного отдела милиции и убойного отдела главка в Санкт-Петербурге. Главные герои сериала Игорь Плахов и Василий Рогов сотрудники милиции, их служба связана с раскрытием как бытовых преступлений, так и борьбой с организованной преступностью. Работая за копеечную зарплату и рискуя жизнью, герои исполняют свой долг.-Продолжительность: 57х~00:52:00
Качество видео: DVDRip
Видеокодек: DivX, XviD
Битрейт видео: ~1200 Кбит/с
Размер кадра: 640x384, 672х400, 688х400, 704х432
Аудиокодек: AC3
Аудио: 128, 192 Кбит/с
Субтитры: Отсутствуют

MediaInfo:

E:\??????\??????? ???? (1-6 ?????, 57 ????? ?? 57) (2000-2005) DVDRip\Ubojnaja.sila.43.serija.iz.57.2000-2005.XviD.DivX.DVDRip.avi
General
Complete name : E:\??????\??????? ???? (1-6 ?????, 57 ????? ?? 57) (2000-2005) DVDRip\Ubojnaja.sila.43.serija.iz.57.2000-2005.XviD.DivX.DVDRip.avi
Format : AVI
Format/Info : Audio Video Interleave
File size : 698 MiB
Duration : 53mn 12s
Overall bit rate : 1 833 Kbps
Writing application : FairUse Wizard - http://fairusewizard.com
Writing library : The best and REALLY easy backup tool
Video #0
ID : 0
Format : MPEG-4 Visual
Format profile : Advanced [email protected]
Format settings, BVOP : 1
Format settings, QPel : No
Format settings, GMC : No warppoints
Format settings, Matrix : Default (MPEG)
Muxing mode : Packed bitstream
Codec ID : XVID
Codec ID/Hint : XviD
Duration : 53mn 12s
Bit rate : 1 632 Kbps
Width : 688 pixels
Height : 400 pixels
Display aspect ratio : 1.720
Frame rate : 25.000 fps
Color space : YUV
Chroma subsampling : 4:2:0
Bit depth : 8 bits
Scan type : Progressive
Compression mode : Lossy
Bits/(Pixel*Frame) : 0.237
Stream size : 621 MiB (89%)
Writing library : XviD 1.2.0.dev47 (UTC 2006-11-01)
Audio #1
ID : 1
Format : AC-3
Format/Info : Audio Coding 3
Mode extension : CM (complete main)
Format settings, Endianness : Big
Codec ID : 2000
Duration : 53mn 12s
Bit rate mode : Constant
Bit rate : 192 Kbps
Channel(s) : 2 channels
Channel positions : Front: L R
Sampling rate : 48.0 KHz
Bit depth : 16 bits
Compression mode : Lossy
Stream size : 73.1 MiB (10%)
Alignment : Split accross interleaves
Interleave, duration : 40 ms (1.00 video frame)
Interleave, preload duration : 500 ms
Скриншоты:
Убойная сила
Время раздачи: С 16:00 до 21:00 По Москве

[Цитировать]



Показать сообщения:    

Текущее время: 05-Дек 01:29

Часовой пояс: UTC + 3


Вы не можете начинать темы
Вы не можете отвечать на сообщения
Вы не можете редактировать свои сообщения
Вы не можете удалять свои сообщения
Вы не можете голосовать в опросах
Вы не можете прикреплять файлы к сообщениям
Вы не можете скачивать файлы

!ВНИМАНИЕ!
Сайт не предоставляет электронные версии произведений, а занимается лишь коллекционированием и каталогизацией ссылок, присылаемых и публикуемых на форуме нашими читателями. Если вы являетесь правообладателем какого-либо представленного материала и не желаете, чтобы ссылка на него находилась в нашем каталоге, свяжитесь с нами, и мы незамедлительно удалим ее. Файлы для обмена на трекере предоставлены пользователями сайта, и администрация не несет ответственности за их содержание. Просьба не заливать файлы, защищенные авторскими правами, а также файлы нелегального содержания!