[ Today is free to download without increasing Download ]

DL-List and Torrent activity
Разгадка египетских тайн. Тайны долины Царей / Secrets of the Valley of the Kings Год выпуска: 2009
Страна: США
Производство: National Geographic
Жанр: Документальный
Режиссер: Девид Ли
В ролях: Историки, археологи и другие
Перевод: Профессиональный (одноголосый)
Субтитры: Отсутствуют
Описание: Долина царей - величайшее захоронение фараонов Египта. Под песчаными дюнами - километры туннелей, камер и усыпальниц, в которых скрыты останки династий правителей Древнего Египта. Как древние египтяне строили этот сложный подземный мир? Сегодня, используя последние достижения современных технологий, наука раскрывает эти тайны...
Качество: SATRip
Продолжительность: 00:49:42:8.40
Формат: AVI
Видео кодек: XviD
Аудио кодек: MP3
Видео: 704x400 (1.76:1), 25 fps, XviD build 64 ~1715 kbps avg, 0.24 bit/pixel
Аудио: 48 kHz, MPEG Layer 3, 2 ch, ~128.00 kbps avg

Media Info

ID                               : 0
Format                           : MPEG-4 Visual
Format profile                   : Advanced Simple@L5
Format settings, BVOP            : Yes
Format settings, QPel            : No
Format settings, GMC             : 3 warppoints
Format settings, Matrix          : Default (H.263)
Codec ID                         : XVID
Codec ID/Hint                    : XviD
Duration                         : 49mn 42s
Bit rate                         : 1 716 Kbps
Width                            : 704 pixels
Height                           : 400 pixels
Display aspect ratio             : 16:9
Frame rate                       : 25.000 fps
Resolution                       : 8 bits
Colorimetry                      : 4:2:0
Scan type                        : Progressive
Bits/(Pixel*Frame)               : 0.244
Stream size                      : 610 MiB (92%)
Writing library                  : XviD 64
ID                               : 1
Format                           : MPEG Audio
Format version                   : Version 1
Format profile                   : Layer 3
Mode                             : Joint stereo
Format_Settings_ModeExtension    : MS Stereo
Codec ID                         : 55
Codec ID/Hint                    : MP3
Duration                         : 49mn 42s
Bit rate mode                    : Constant
Bit rate                         : 128 Kbps
Channel(s)                       : 2 channels
Sampling rate                    : 48.0 KHz
Stream size                      : 45.5 MiB (7%)
Alignment                        : Aligned on interleaves
Interleave, duration             : 24 ms (0.60 video frame)
Writing library                  : LAME3.98.2ЄЄЄЄЄЄЄЄЄЄ



Display posts:    

Current time is: 24-Oct 15:23

All times are UTC + 3

You cannot post new topics in this forum
You cannot reply to topics in this forum
You cannot edit your posts in this forum
You cannot delete your posts in this forum
You cannot vote in polls in this forum
You cannot attach files in this forum
You cannot download files in this forum

The site does not give electronic versions of products, and is engaged only in a collecting and cataloguing of the references sent and published at a forum by our readers. If you are the legal owner of any submitted material and do not wish that the reference to it was in our catalogue, contact us and we shall immediately remove her. Files for an exchange on tracker are given by users of a site, and the administration does not bear the responsibility for their maintenance. The request to not fill in the files protected by copyrights, and also files of the illegal maintenance!