[ Сегодня идет свободное скачивание без начисления Download ]


Статистика раздачи
Нет
 
   
 
Top  
 
 
-Агент национальной безопасности [5 сезонов, 60 серий из 60] (1999-2004) DVDRip - Русское название: Агент национальной безопасности
Сезоны: 1-5
Годы выпуска: 1999-2004
Жанр: Боевик, Детектив, Приключения
Описание фильма:«Агент национальной безопасности» — российский художественный телесериал, снятый в 1999 - 2004 г.г., о похождениях агента спецслужбы Алексея Николаева.
Леха – молодой, умный, обаятельный парень из хорошей семьи. За спиной у него немалый жизненный опыт: детство и юность прошли на Лиговке (самом хулиганском районе Питера), потом – Афганистан и незаконченный театральный институт. Благодаря своей незаурядной внешности, способности к перевоплощению, не отягощенный излишними комплексами Николаев может в интересах дела с одинаковой легкостью стать и бомжем, и русским "Джеймсом Бондом", только намного симпатичнее... Его амплуа меняется так часто, что даже "свои" порой не знают, что он выкинет в этот раз.
Ему поручают самые сложные и рискованные дела, и он привык работать в одиночку. Ему часто приходится нести ответственность за дела государственного, а иногда и международного масштаба. Чтобы провести операцию успешно, ему нередко приходится перевоплощаться и внедряться в ряды противников. Ему приходится обезвреживать крайне опасных преступников и раскрывать самые запутанные дела. Цель его работы – благородная: он оберегает жизнь и покой соотечественников, именно поэтому он – Агент Национальной Безопасности...
Продолжительность: 60 x ~00:50
Качество видео: DVDRip
Видеокодеки: DivX 5, Xvid
Размер кадра: 720х544, 704х512, 640х480
Аудиокодеки: AC3 5.1, AC3 2.0
Битрейт аудио: 192-448 kb/s

Сезон 1 (12 серий):

Агент национальной безопасности (1999) DVDRip [Сезон 1, 12 серий из 12]- Русское название: Агент национальной безопасности
Сезон: 1
Год выпуска: 1999
Жанр: Боевик, Детектив, Приключения
Режиссеры: Эрнест Ясан, Дмитрий Светозаров, Виталий Аксенов, Андрей ЧерныхАктеры: Михаил Пореченков, Андрей Толубеев, Андрей Краско, Вадим Яковлев, Анна Геллер, Иван Шведов, Николай Лавров, Сергей Горобченко, Александр Завьялов, Мария НикифороваОписание фильма:Леха Николаев - агент национальной безопасности. Ему поручают самые сложные и рискованные дела, он почти всегда работает один, без прикрытия, рассчитывая только на собственные силы и небольшую долю везения. И хотя он никогда не будет ездить на `Остин - Мартине`, как Джеймс Бонд, и от классического мартини с водкой ему, в лучшем случае, достанется только водка, он гораздо круче своего британского коллеги. Потому что свою страну от бандитизма и баспредела он спасает каждый день. Агент - это не работа, это состояние души. Поэтому, даже отстраненный от дела, настоящий агент будет бульдогом висеть на безнадежном `висяке`, все сильнее сжимая тиски вокруг подозреваемых, чтобы в решающий момент одним ударом отхватить голову целой преступной группировке..
Продолжительность: 12 x ~00:50
Качество видео: DVDRip
Сэмпл: Скачать
Видеокодек: DivX 5
Битрейт видео: ~1490 kb/s
Размер кадра: 720х544
Аудиокодек: AC3 5.1
Битрейт аудио: 384 kb/s

Содержание:

01 серия. "Свет истины". Пройдя огонь, воду и даже театральные подмостки, Алексей Николаев находит себя в работе сыщика. В нем горит охотничий инстинкт, но в азарте "погони за добычей" он не забывает и о простых мирских утехах. Временно отстраненный от активной деятельности за мелкий служебный проступок, он, тем не менее, с риском для жизни собственной и очередной "утешительницы" в лице молодой журналистки, берется за сложное дело.
02 серия. "Петя и "Вол". Чтобы выйти на след банды хакеров, взломавших банк в Хельсинки, Лехе приходится играть роль уголовника по кличке Вол. Он втирается в доверие к компьютерщику Пете и через него выходит на крупную рыбу — заказчиков, решивших убрать лишних свидетелей.
03 серия "Махаон". Изрядно выпивший Алексей случайно забредает в ночной клуб для "голубых", учиняет там драку и попадает в милицию. Руководство вызволяет дебошира из камеры и поручает дело, нити которого ведут к недавно погибшему телеведущему Константину Мозину. По имеющимся данным, Мозин передал зарубежной телекомпании видеокассету с записью выступления некой Светланы Мироновой, сообщившей об утечке военно-технических тайн на запад...
04 серия "Скрипка Страдивари". Начальство поручает Лехе Николаеву и его напарнику Краснову очередное дело: у профессора Сорина похищена ценная скрипка работы мастера Страдивари. Есть опасения, что в ближайшее время скрипка будет переправлена за границу. Подозрение падает на ученика профессора Сергея Шитикова, которого видели выходящим из квартиры учителя...
05 серия "Страсти по Филонову". Засада, устроенная на человека, который должен был передать проводнику поезда посылку с рисунком Филонова, закончилась безрезультатно — отправителю "почты" удалось ускользнуть. А в это время в запасниках Русского музея вместо некоторых оригиналов рисунков Филонова обнаружились копии. Агенту национальной безопасности поручают найти автора копий и выйти на преступников. Выдав себя за художника из провинции, Алексей проникает в богемный мир творческой интеллигенции...
06 серия "Доктор Фауст". Согласно заключению экспертизы, погибший наркокурьер транспортировал в себе новый наркотический препарат. Алексей временно селится в комнате, которую снимал курьер. Некий Павел, сдавший комнату, явно связан с наркоторговцами. В квартире Алексей знакомится с наркоманкой Асей. А Павла вскоре находят повешенным. Личностью химика-изобретателя очень интересуется и "Филарет", босс мафии. Рассказ бездомного мальчишки Иннокентия, живущего в склепе на кладбище, наводит агента на подземную лабораторию, в которой "доктор Фауст" изготавливал новый наркотик...
07 серия "Шантаж". Геннадий Хомяков, губернатор края, попадает в "беду". Неизвестный шантажирует его, требуя крупную сумму денег за видеозапись, на которой губернатор развлекался в бассейне с голыми девицами. Алексей должен найти оригинал записи...
08 серия "Легион". Алексей опять отличился: убил киллера, совершившего покушение на крупную "шишку". Хуже другое: по уликам выходит, что агент имел отношение к организации преступления. Сам Алексей почти ничего не помнит, так как был оглушен. Во время обыска коллеги обнаруживают в его квартире ключ от камеры хранения с "гонораром". Агенту "позволяют" сбежать и самому расследовать дело...
09 серия "Три дня до эфира". На машину, в которой находился малолетний сын кандидата в депутаты Савицкого, совершено нападение. Водитель и охранник убиты, а мальчик похищен. Преступники требуют от политического деятеля снять свою кандидатуру с предстоящих выборов и выступить с заявлением по телевидению. До назначенного срока остается три дня. Дело поручают Николаеву, который на это время становится водителем Савицкого...
10 серия "Медуза Горгона". У Филарета появляется новая сотрудница — молодая девушка Юля, обладающая паранормальными способностями. Она может не только подчинить человека своей воле с помощью взгляда, но и убить. Юле удается беспрепятственно посетить отделы ФСБ и собрать нужную информацию в отделе, курирующем исследования в области альтернативных энергоносителей. Филарет решает похитить образец "кония": несколько граммов этого секретного вещества, могут принести прибыль в миллионы долларов...
11 серия "Наследник". Бандит по кличке Луфарь похищает Эдуарда Асланова, внука влиятельного человека кавказской национальности. Люди Асланова прибывают в город, чтобы разыскать похитителей и отомстить. Тарасов и Тихомиров, руководители подразделения ФСБ, отправляются к Асланову-деду, чтобы избежать кровопролития, и сами становятся его заложниками: глава клана считает, что похищение — дело рук ФСБ...
12 серия "Транзит". Руководство отдела получает информацию о том, что с одного из заводов происходит утечка военной продукции. Алексею поручено выяснить личности посредников и покупателей. В ходе операции произошел сбой на посту автоинспекции, пришлось применить оружие, водители были ранены и задержаны. Теперь Алексей занял место за баранкой, играя роль водителя-курьера...

MediaInfo:

Формат : AVI
Формат/Информация : Audio Video Interleave
Программа кодирования : VirtualDubMod 1.5.4.1 (build 2178/release)
Библиотека кодирования : VirtualDubMod build 2178/release
Видео
Идентификатор : 0
Формат : MPEG-4 Visual
Параметр BVOP формата : 1
Параметр QPel формата : Нет
Параметр GMC формата : Без точки перехода
Параметр матрицы формата : Default (H.263)
Режим смешивания : Сжатый битовый поток
Идентификатор кодека : DX50
Идентификатор кодека/Подсказка : DivX 5
Продолжительность : 52 м.
Битрейт : 1490 Кбит/сек
Ширина : 720 пикселей
Высота : 544 пикселя
Соотношение сторон : 4:3
Частота кадров : 25,000 кадров/сек
Цветовое пространство : YUV
Субдискретизация насыщенности : 4:2:0
Битовая глубина : 8 бит
Тип развёртки : Прогрессивная
Метод сжатия : С потерями
Бит/(Пиксели*Кадры) : 0.152
Размер потока : 555 Мбайт (79%)
Библиотека кодирования : DivX 6.8.0 (UTC 2007-12-04)
Аудио
Идентификатор : 1
Формат : AC-3
Формат/Информация : Audio Coding 3
Расширение режима : CM (complete main)
Идентификатор кодека : 2000
Продолжительность : 52 м.
Вид битрейта : Постоянный
Битрейт : 384 Кбит/сек
Каналы : 6 каналов
Расположение каналов : Front: L C R, Side: L R, LFE
Частота : 48,0 КГц
Битовая глубина : 16 бит
Метод сжатия : С потерями
Размер потока : 143 Мбайт (20%)
Выравнивание : Разделение по промежуткам
Продолжительность промежутка : 96 мс. (2,40 видеокадра)
Время предзагрузки промежутка : 96 мс.
Язык : Russian
Скриншоты:

Сезон 2 (12 серий):

Агент национальной безопасности (2000) DVDRip [Сезон 2, 12 серий из 12]- Русское название: Агент национальной безопасности
Сезон: 2
Год выпуска: 2000
Жанр: Боевик, Детектив, Приключения
Режиссер: Дмитрий СветозаровАктеры: Михаил Пореченков, Андрей Краско, Андрей Толубеев, Вадим Яковлев, Оксана Базилевич, Анна Банщикова, Евгений Баранов, Сергей Бехтерев, Геннадий Богачев, Константин Воробьев, Николай Дик, Юрий Дубровин, Александр Жданов, Изиль Заблудовский, Игорь Иванов, Александр Иммамназаров, Сергей Исавнин, Николай Исполатов, Александр Кавалеров, Ольга Калмыкова, Николай ЛавровОписание фильма:Продолжение одноименного детективного сериала. Отечественный Джеймс Бонд, неуловимый и неукротимый агент национальной безопасности, Алексей Николаев, разгадывает самые запутанные случаи. Каждый раз ему приходится сталкиваться с достойными противниками. Трудно предположить, что суперагент и непревзойденный мастер по выстраиванию хитроумных ходов и всевозможных ловушек, порой сам попадает в сети. Но у Лехи Николаева нет безвыходных ситуаций, и каждая история превращается в увлекательное и, конечно же, успешное расследование. В питерской гостинице убит представитель крупной европейской нефтяной фирмы. В правоохранительные органы попадает видеокассета, на которой запечатлены исполнители преступления...
Продолжительность: 12 x ~00:50
Качество видео: DVDRip
Сэмпл: Скачать
Видеокодек: DivX 5
Битрейт видео: ~1443 kb/s
Размер кадра: 720х544
Аудиокодек: AC3 5.1
Битрейт аудио: 448 kb/s

Содержание:

01 серия. "Россан".Убили агента Селиверстова, пришедшего в органы из театра. Он умел, перевоплотившись, проникнуть в любую преступную среду. Расследование поручают Алексею Николаеву. Ему предстоит выяснить, случайным или преднамеренным было совершенное убийство.
02 серия. "Гордеев узел".Начальство сообщает Алексею, что у станции метро «Горьковская» обокрали какого-то мужчину, у которого была найдена уникальная схема торпедного узла от новой разработки невидимой торпеды, не имеющей аналогов в мире, изобрел которую пенсионер Гордеев, бывший сотрудник НИИ. К нему и посылают Алексея, чтобы выяснить, как секретные документы оказались в кармане у прохожего. Оказывается, что они были выкрадены из домашнего сейфа Гордеева…
03 серия. "Смертник".Убивают скандально известного тележурналиста Кострова, занимавшегося разоблачениями махинаций высоких военных чинов. При аресте кончает с собой генерал, подозреваемый в "заказе" тележурналиста, а позднее находят убитой и любовницу Кострова. У вдовы Кострова Алексей встречается с крупным московским бизнесменом, который вложил немало денег в его "раскрутку"...
04-05 серия. "Человек без лица".В отдел, где служит Николаев, поступает информация о банде террористов, готовящих убийство дочери видного исламского религиозного деятеля, критиковавшего "Волков ислама". Гульнару берут под охрану, а Николаев идет на встречу с тем, кто грозит отомстить террористам за погибших родственников. При встрече незнакомец, назвавшийся Рашидом, не открывая своего лица, передает Алексею странный пакет...
06-07 серия. "Клуб Алиса".Владелица ночного клуба, роковая женщина Алиса, очаровывает Алексея Николаева. Ему кажется, что он по-настоящему влюблен и готов на все ради любимой. Алису шантажируют очень опасные люди, и Алексей, не раздумывая, ввязывается в сомнительную авантюру. В мужском туалете он находит труп девушки, умершей якобы от передозировки наркотика. Выясняется, что погибшая — секретный агент, внедренный с целью добычи информации. В Питер из Австрии под чужим именем прибывает бывший коллега и учитель Николаева — Сурков. Теперь он — наемный убийца, которому "заказали" Алису...
08 серия "Нобелевский лауреат".В лаборатории НИИ в ванне с серной кислотой найден труп монтера, дежурившего ночью. При осмотре места преступления оказывается, что преступники пытались вскрыть сейф с секретной документацией. Этот факт настораживает Ивана Ивановича. Леха предлагает нетрадиционное решение — попытаться поймать преступника на «живца». Им соглашается стать муж Шуры — Сергей…
09-10 серия. "Цейтнот".Совершено «громкое» преступление: в отеле убит представитель крупной иностранной компании, занимавшийся нефтяным бизнесом. На видеопленке, запечатлевшей все происходящее, среди убийц, расстрелявших бизнесмена и его охрану — спецагент Алексей Николаев. Его коллеги в шоке. На раскрытие преступления отводится меньше суток — полный «цейтнот». Напарник Николаева Краснов выходит на след одного из убийц — серийного маньяка, с которым Николаев когда-то сидел в одной камере в Крестах…
11 серия "Снежный человек".В одной из воинских частей произошло странное событие. На сержанта, охранявшего стратегический объект особой важности, напал `снежный человек`. Расследование этого дела поручают Андрею Краснову. Выехав на место происшествия и пообщавшись с местным населением, Краснов выясняет, что в близлежащей деревне происходят очень странные вещи, разгадать которые ему одному не под силу. Как всегда, на помощь своему другу приходит Леха Николаев…
12 серия. "Технология убийства".Не в первый раз Алексей Николаев сталкивается с достойным противником. На этот раз на его пути встал бывший спецназовец, обученный всевозможным методам борьбы и уникальным способам убийства. Только теперь он объявил войну своим согражданам, вынося смертные приговоры преступникам, похитившим его юную дочь. По долгу службы Алексею предстоит обезвредить палача, но в душе он сочувствует этому мстителю поневоле…

MediaInfo:

Формат : AVI
Формат/Информация : Audio Video Interleave
Программа кодирования : VirtualDubMod 1.5.4.1 (build 2178/release)
Библиотека кодирования : VirtualDubMod build 2178/release
Видео
Идентификатор : 0
Формат : MPEG-4 Visual
Параметр BVOP формата : Нет
Параметр QPel формата : Нет
Параметр GMC формата : Без точки перехода
Параметр матрицы формата : Default (H.263)
Идентификатор кодека : DX50
Идентификатор кодека/Подсказка : DivX 5
Продолжительность : 51 м.
Битрейт : 1443 Кбит/сек
Ширина : 720 пикселей
Высота : 544 пикселя
Соотношение сторон : 4:3
Частота кадров : 25,000 кадров/сек
Цветовое пространство : YUV
Субдискретизация насыщенности : 4:2:0
Битовая глубина : 8 бит
Тип развёртки : Прогрессивная
Метод сжатия : С потерями
Бит/(Пиксели*Кадры) : 0.147
Размер потока : 532 Мбайт (76%)
Библиотека кодирования : DivX 5.1.1 (Maupiti) (UTC 2003-11-19)
Аудио
Идентификатор : 1
Формат : AC-3
Формат/Информация : Audio Coding 3
Расширение режима : CM (complete main)
Идентификатор кодека : 2000
Продолжительность : 51 м.
Вид битрейта : Постоянный
Битрейт : 448 Кбит/сек
Каналы : 6 каналов
Расположение каналов : Front: L C R, Side: L R, LFE
Частота : 48,0 КГц
Битовая глубина : 16 бит
Метод сжатия : С потерями
Задержка видео : 24 мс.
Размер потока : 165 Мбайт (24%)
Выравнивание : Разделение по промежуткам
Продолжительность промежутка : 96 мс. (2,40 видеокадра)
Время предзагрузки промежутка : 96 мс.
Скриншоты:

Сезон 3 (12 серий):

Агент национальной безопасности (2001) DVDRip [Сезон 3, 12 серий из 12]- Русское название: Агент национальной безопасности
Сезон: 3
Год выпуска: 2001
Жанр: Боевик, Детектив, Приключения
Режиссеры: Дмитрий Светозаров, Игорь Москвин, Андрей КравчукАктеры: Михаил Пореченков, Андрей Краско, Андрей Толубеев, Вадим Яковлев, Иван Краско, Анна Геллер, Александр Алексеев, Татьяна Аптикеева, Анна Банщикова, Евгений Баранов, Александр БашировОписание фильма:Полковники Тарасов и Тихомиров получают информацию о том, что ликвидированный десять лет назад секретный объект «Заводск-49» не только продолжает существовать, но и выдает по-прежнему партии алмазов, не учтенные никакими ведомствами. Кто продолжает добычу на рудниках, какими средствами и силами, предстоит выяснить агентам Николаеву и Краснову…
Продолжительность: 12 x ~00:50
Качество видео: DVDRip
Сэмпл: Скачать
Видеокодек: DivX 5
Битрейт видео: ~1459 kb/s
Размер кадра: 720х544
Аудиокодек: AC3 5.1
Битрейт аудио: 448 kb/s

Содержание:

01 серия. "Заколдованный город".Полковники Тарасов и Тихомиров получают информацию о том, что ликвидированный десять лет назад секретный объект "Заводск-49" не только продолжает существовать, но и выдает по-прежнему партии алмазов, не учтенные никакими ведомствами. Кто продолжает добычу на рудниках, какими средствами и силами, предстоит выяснить агентам Николаеву и Краснову…
02 серия. "Сделка".При перевозке в тюрьму "совершает побег" рецидивист Нос. Операция была подготовлена органами безопасности с целью установления связей Носа с Большим Папой, бандитским авторитетом, уже устранившим с помощью Носа конкурента по нефтяному бизнесу. Но план срывается: Нос совершает настоящий побег, убив сопровождающего и скрывшись от наблюдения...
03-04 серии. "Рекламная пауза".Полковники Тарасов и Тихомиров получают из Интерпола информацию, что американский наркосиндикат решил создать с "нашим" некое совместное предприятие. Через восходящую звезду рекламного бизнеса Мэда Кьюкамбера должна быть переправлена партия большая героина. Если реализация пройдет успешно, то сотрудничество продолжится... Мэд Кьюкамбер был выбран синдикатом как персона дипломатического уровня, не подлежащая таможенному досмотру. Основная задача, поставленная перед нашими агентами - деликатно, не вызывая никаких подозрений у звезды, выяснить, куда спрятан героин и кому он предназначен. Решать эту задачу Леха Николаев н6амерен с помощью специалиста в области химии Воробей-Сперанского...
05-06 серии. "Ловушка".К Тарасову за помощью в поисках пропавшей внучки обращается судья, ведущий процесс над известным в городе политиком, замешанным в грязных делах. Следы пропавшей девочки ведут в закрытую спецклинику МВД, где содержаться маньяки, людоеды, серийные убийцы. Николаеву удается проникнуть в клинику под видом уголовника, страдающего почечными коликами, но через сутки связь с ним обрывается. А приехавшим в клинику коллегам заявляют, что интересующий их пациент скончался от инсульта, а тело его кремировано. Но такой поворот событий совершенно не устроил соратников Николаева, и они начали поиск... Посетив крематорий, где якобы сожгли тело Николаева, Краснов узнает, что это был другой человек. А всю игру затеял "авторитет" Филарет, получивший задание любой ценой вытащить из-под приговора грязного политика Дутова. В это время Николаев пытается сбежать из клиники...
07 серия. "Игра".К агентам обратился давно разыскиваемый киллер, которому предстоит убрать очередную жертву. К нему приставляют Николаева, который должен контролировать ход операции с подменой жертвы покушения. Но в последний момент киллер обманывает агентов и, сделав выстрел, пытается скрыться на другой машине. Но Алексей настигает его и привозит на место происшествия, где уже собралось все начальство...
08 серия. "Падишах".Из сокровищницы пропал огромный черный алмаз "Падишах", служивший украшением рукояти ятагана, подаренного императору Павлу I турецким пашой. А вскоре стало известно, что "авторитет" Филарет собирается выехать в Израиль. Туда же для проведения операции совместно с тамошними спецслужбами направляют Николаева и Краснова. Здесь в образе правоверного еврея Леха следит за Филаретом. После ряда перипетий им удается найти Филарета и забрать алмаз...
09 серия. "Свидетель".Один за другим гибнут преуспевающие бизнесмены, причем почерк убийств одинаков и достаточно необычен: убийца помимо стрелкового и холодного оружия использует очень редкие яды. Его не могут остановить ни многочисленные охранники, ни натасканные псы. Просчитав ситуацию, в службе безопасности понимают, что действует суперпрофессионал. Обратившись к архивам, все приходят к выводу, что происходящее как-то связано с бывшей секретной военной миссией в одной из южных азиатских стран. Николаев идет на очередную встречу, назначенную убийцей своей жертве. Он узнает, что все убитые были замешаны в торговле оружием, из-за чего погибли многие члены спецгруппы, в которой когда-то служил и «мститель»
10-11 серии. "Клятва Гиппократа".В отдел привозят мальчишку Колю Воскресенского, который рассказывает, что сбежал от приемных родителей — итальянцев, которые усыновили их с братом и поместили в какую-то клинику. В клинике его брату сделали операцию, после которой Коля больше его не видел. Николаев с Красновым выходят на подставного "приемного отца". Но кто-то опередил их, и они находят только его труп. Агенты догадываются, что дело связано с контрабандой человеческими органами, и прячут Колю в семье Краснова. Но во время поисков описанного Колей дома, где их содержали, мальчик пропадает...Николаев знакомится с Натальей Юрьевной, владелицей косметической фирмы "Белафаччо". Именно под такой фамилией действовали "приемные родители" Коли. А через нее выходит на некоего Макса Кранца, бывшего медика, отлученного от науки из-за его грязных опытов с эвтаназией. Именно он в подвале фирмы "Белафаччо" собирается оперировать Колю с целью продажи органов за границу. Николаеву удается спасти мальчика в момент, когда тот уже находился под наркозом. Он уговаривает Краснова взять мальчишку к себе в семью...
12 серия. "Сутенёр".В службу безопасности обратился американский атташе с просьбой разыскать его пропавшую дочь. Вести дело поручают агенту Николаеву. Выйти на след преступников Николаеву помогает найденная в лесу раненая девушка. Она рассказывает о том, что ее вместе с другими похищенными девушками пытались насильно перевезти за рубеж в качестве "живого товара". Среди похищенных она узнала американку. Николаев через сутенера, обманом заманивавшего девушек, находит место, где их содержат. В перестрелке он расправляется с бандитами и освобождает узниц. Даже раненый, он не может не попросить друга и напарника Краснова "взять у девушек телефончики"...

MediaInfo

Формат : AVI
Формат/Информация : Audio Video Interleave
Программа кодирования : VirtualDubMod 1.5.4.1 (build 2178/release)
Библиотека кодирования : VirtualDubMod build 2178/release
Видео
Идентификатор : 0
Формат : MPEG-4 Visual
Параметр BVOP формата : 1
Параметр QPel формата : Нет
Параметр GMC формата : Без точки перехода
Параметр матрицы формата : Default (H.263)
Режим смешивания : Сжатый битовый поток
Идентификатор кодека : DX50
Идентификатор кодека/Подсказка : DivX 5
Продолжительность : 51 м.
Битрейт : 1459 Кбит/сек
Ширина : 720 пикселей
Высота : 544 пикселя
Соотношение сторон : 4:3
Частота кадров : 25,000 кадров/сек
Цветовое пространство : YUV
Субдискретизация насыщенности : 4:2:0
Битовая глубина : 8 бит
Тип развёртки : Прогрессивная
Метод сжатия : С потерями
Бит/(Пиксели*Кадры) : 0.149
Размер потока : 534 Мбайт (76%)
Библиотека кодирования : DivX 6.8.0 (UTC 2007-12-04)
Аудио
Идентификатор : 1
Формат : AC-3
Формат/Информация : Audio Coding 3
Расширение режима : CM (complete main)
Идентификатор кодека : 2000
Продолжительность : 51 м.
Вид битрейта : Постоянный
Битрейт : 448 Кбит/сек
Каналы : 6 каналов
Расположение каналов : Front: L C R, Side: L R, LFE
Частота : 48,0 КГц
Битовая глубина : 16 бит
Метод сжатия : С потерями
Задержка видео : 24 мс.
Размер потока : 164 Мбайт (23%)
Выравнивание : Разделение по промежуткам
Продолжительность промежутка : 96 мс. (2,40 видеокадра)
Время предзагрузки промежутка : 96 мс.
Скриншоты:

Сезон 4 (12 серий):

Агент национальной безопасности (2003) DVDRip [Cезон 4, 12 серий из 12]- Русское название: Агент национальной безопасности
Сезон: 4
Год выпуска: 2003
Жанр: Боевик, Детектив, Приключения
Режиссерs: Игорь Москвитин, Влад ФурманАктеры: Михаил Пореченков, Андрей Краско, Андрей Толубеев, Вадим Яковлев, Сергей Власов, Леонид Ворон, Юлия Горшенина, Андрей Зибров, Татьяна Колганова, Кристина Кузьмина, Сергей Курышев, Андрей Носков, Александр Орловский, Инна Провоторова, Ирина Тычина, Хельга Филиппова, Лана Паули, Федор СелькинОписание фильма:В ходе военной операции обнаружена кассета с записью обращения полевого командира Саида аль Мастафа, на которой он, демонстрируя металлическую капсулу с биологическим вирусом, грозит применить её во славу Аллаха. А за неделю до этого, из одной секретной частной лаборатории исчезает искусственно выведенный штамм опасного вируса бубонной чумы. Российской военной разведке становится известно, что организация «Единых Братьев мусульман» собирается переправить эту капсулу под видом гуманитарной помощи из Финляндии в Чечню, а далее — в Афганистан для свержения правящего режима. Копия этой же кассеты попадает и к агентам национальной безопасности. К расследованию подключаются Николаев и Краснов…
Продолжительность: 12 x ~00:50
Качество видео: DVDRip
Сэмпл: Скачать
Видеокодек: Xvid
Битрейт видео: ~1283 kb/s
Размер кадра: 704х512
Аудиокодек: AC3 2.0
Битрейт аудио: 192 kb/s

Содержание:

01-02 серии. "Меч пророка". Чечня. В ходе военной операции обнаружена кассета с записью обращения полевого командира Саида аль Мастафа, на которой он, демонстрируя металлическую капсулу с биологическим вирусом, грозит применить её во славу Аллаха. А за неделю до этого, из одной секретной частной лаборатории исчезает искусственно выведенный штамм опасного вируса бубонной чумы. Российской военной разведке становится известно, что организация «Единых Братьев мусульман» собирается переправить эту капсулу под видом гуманитарной помощи из Финляндии в Чечню, а далее — в Афганистан для свержения правящего режима. Копия этой же кассеты попадает и к агентам национальной безопасности. К расследованию подключаются Николаев и Краснов…
03-04 серии. "Королева мечей". За короткий срок умирают несколько видных учёных, светил российской науки. По официальной версии все они погибают в результате несчастных случаев. Но «подозрительные смерти», на первый взгляд, никоим образом не связанные между собой, заставляют агентов национальной безопасности заняться этим делом. Экспертиза научной деятельности погибших приводит к выводу, что все учёные, каждый в своей области, занимались разработкой нового смертельного оружия. Нити следствия ведут к председателю комитета по науке, за которым уже давно установлена слежка…
05-06 серии. "Время Ч". На пустыре на окраине города от мощного взрыва погибает десятилетний мальчик — воспитанник детского дома «Улыбка». Экспертами установлено, что в костёр был брошен пластид. Поскольку это вещество используется профессиональными террористами, Николаев и Краснов приступают к расследованию. Им удается найти второго мальчика, который был на пустыре во время взрыва. Он рассказывает, что пластид был найден в подвале школы-интерната. Начинается плотная разработка преподавательского коллектива «Улыбки»…
07-08 серии. "Спас нерукотворный". С якутских приисков начинают исчезать крупные партии алмазов. Вскоре эти же камни, но уже очень качественно ограненные, появляются у боевиков-наемников в Чечне. Кроме этого, бриллианты обнаруживаются и у крупных ювелиров. Поскольку боевики вряд ли могут сами сбывать их в Санкт-Петербурге, Николаев делает вывод, что канал переправки камней и люди, этим занимающиеся, находятся где-то рядом. На юбилее у отца своей подруги, Лёха Николаев знакомится с антикварами Дмитрием Покровским и Валерием Фридманом. По оперативным разработкам они проходят как поставщики имитированных под старину икон за рубеж. Через несколько дней Дмитрия Покровского убивают, а при нем обнаруживают кольцо с бриллиантом. Экспертиза устанавливает, что это якутский камушек, огранённый за границей…
09-10 серии. "Тигры не знают страха". С некоторых пор Алексея Николаева мучают ночные кошмары: отголоски афганской войны. Решив испытать на себе новый метод реабилитации, он обращается в центр психологической помощи, где знакомится с бывшим сапёром-афганцем Михаилом Ярцевым. Бурно отметив встречу, Николаев остался ночевать у нового друга. Утром в квартире крепко спящего Ярцева раздается телефонный звонок. Николаев, снявший трубку, выслушивает предложением «подзаработать», поступившее от полевого командира незаконного формирования в Чечне Арми Карбаева…
11-12 серии. "Пулковский меридиан". Накануне саммита по международному терроризму в Россию прилетает афганский наемник Джалла. Его цель — сбить самолет с советником по безопасности США, чтобы спровоцировать кризис в российско-американских отношениях. Наиболее удачным местом, с которого можно произвести выстрел Джалла выбирает Пулковскую обсерваторию, находящуюся на высотах рядом с аэропортом. Наемник ликвидирует специалиста, доставляющего оборудование из цюрихского астрономического центра, и под его именем внедряется в обсерваторию. Но убийство иностранного гражданина при весьма странных обстоятельствах привлекает повышенное внимание спецслужб…

MediaInfo:

Формат : AVI
Формат/Информация : Audio Video Interleave
Программа кодирования : VirtualDubMod 1.5.10.2 (build 2540/release)
Библиотека кодирования : VirtualDubMod build 2540/release
Видео
Идентификатор : 0
Формат : MPEG-4 Visual
Профиль формата : Advanced Simple@L5
Параметр BVOP формата : 2
Параметр QPel формата : Нет
Параметр GMC формата : Без точки перехода
Параметр матрицы формата : Default (H.263)
Режим смешивания : Сжатый битовый поток
Идентификатор кодека : XVID
Идентификатор кодека/Подсказка : XviD
Продолжительность : 51 м.
Битрейт : 1283 Кбит/сек
Ширина : 704 пикселя
Высота : 512 пикселей
Соотношение сторон : 1,375
Частота кадров : 25,000 кадров/сек
Цветовое пространство : YUV
Субдискретизация насыщенности : 4:2:0
Битовая глубина : 8 бит
Тип развёртки : Прогрессивная
Метод сжатия : С потерями
Бит/(Пиксели*Кадры) : 0.142
Размер потока : 477 Мбайт (86%)
Библиотека кодирования : XviD 1.2.1 (UTC 2008-12-04)
Аудио
Идентификатор : 1
Формат : AC-3
Формат/Информация : Audio Coding 3
Расширение режима : CM (complete main)
Идентификатор кодека : 2000
Продолжительность : 51 м.
Вид битрейта : Постоянный
Битрейт : 192 Кбит/сек
Каналы : 2 канала
Расположение каналов : Front: L R
Частота : 48,0 КГц
Битовая глубина : 16 бит
Метод сжатия : С потерями
Размер потока : 71,4 Мбайт (13%)
Выравнивание : Разделение по промежуткам
Продолжительность промежутка : 40 мс. (1,00 видеокадр)
Время предзагрузки промежутка : 500 мс.
Скриншоты:

Сезон 5 (12 серий):

Агент национальной безопасности (2004) DVDRip [Сезон 5, 12 серий из 12]- Русское название: Агент национальной безопасности
Сезон: 5
Год выпуска: 2004
Жанр: Боевик, Детектив, Приключения
Режиссеры: Дмитрий Светозаров, Влад Фурман, Алексей ЛебедевАктеры: Михаил Пореченков, Андрей Краско, Андрей Толубеев, Вадим Яковлев, Анна Багмет, Александр Демич, Сергей Дьячков, Андрей Зибров, Наталья Круглова, Ирина Соколова, Евгений Филатов, Олег Чернов, Владимир Шестаков, Василий Щепицын, Елена Эскина, Владислав Юрчикевич, Вахтанг Беридзе, Игорь Ботвин, Владимир Татосов, Наталья Абрамович, Виктор Анисимов, Евгений Баранов, Вячеслав Вавилов, Дестин ГомаОписание фильма:Бывший студент театрального вуза, Алексей нашел удачное применение своим актерским способностям, поступив на службу в милицию. В погоне за правонарушителями он то превращается в бомжа, то становится «знатным» искусствоведом. И всегда, в любой ситуации, этот Дон Жуан раскрывает невероятные преступлении и выходит на след неуловимых преступников. В поединках с бандитами ему помогают напарники и друзья Краснов и Тихомиров...
Продолжительность: 12 x ~00:50
Качество видео: DVDRip
Сэмпл: Скачать
Видеокодек: XviD
Битрейт видео: ~1807 kb/s
Размер кадра: 640х480
Аудиокодек: AC3 2.0
Битрейт аудио: 192 kb/s

Содержание:

01-02 серии. "Фамильные драгоценности". Дочь работника МИДа Финляндии Ульма собирается навестить Россию. Когда-то ее дед спрятал в старинном замке города Выборга фамильные драгоценности. В Выборг Ульма отправилась со своим бойфрендом. В первый же день в баре гостиницы девушка была ограблена: у нее украли сумку, в которой находились документы, деньги и злополучная карта сокровищ.
03-04 серии. "Забыть все". Убит химик Морозов, раньше работавший на оборонную промышленность и участвовавший в разработке боевого отравляющего вещества. Его начальство хотело заставить продолжить разработку этого вещества. Решив избавиться от заказчиков с помощью прессы, Морозов решил передать документы в редакцию, но бумаги достались киллеру. Умирающий ученый передал журналисту флакон с отравляющим газом.
05-06 серии. "Две монетки". У попавшего в аварию байкера, среди вещей обнаружен контейнер с микрочипом. Для расшифровки информации потребовался дешифратор. Пока мотоциклист отлеживался в больнице, Леха Николаев внедряется в компанию байкеров и становится там своим человеком. Пострадавшему байкеру после выписки из больницы вернули все вещи, включая монетку с микрочипом, о которой он больше всего беспокоился. За байкером устанавливается наблюдение.
07-08 серии. "Исчезающий вид". В Париже полиция пресекает попытку ограбления русской поэтессы Норы Алпатовой. Отобранное у вора манто было сшито из меха занесенного в красную книгу красного волка. Французы передали манто российским спецслужбам с требованием разобраться с преступным бизнесом. Гена выдает себя за начинающего поэта Георгия Загорского и входит в доверие к Норе Алпатовой, которая вскоре знакомит Гену с владелицей мехового салона Мариной.
09-10 серии. "Тихий берег". Андрей и Леха получили отпуск. Но в этот момент в гостинице убили немецкого барона Карла Шварцбаха, и пропала очень ценная вещь, которую барон должен был преподнести в дар Эрмитажу. Леха взял расследование на себя, а Андрей выехал к морю. Леха выяснил, что убийцы барона забрали очень древнюю терракотовую скульптуру мальчика. Погибший барон был из российских немцев. Анализ пленок видеонаблюдения почти ничего не дал: в момент убийства камеры были заклеены скотчем.
11-12 серии. "Золотая голова". Бывший одноклассник Андрея, ученый-археолог Горькухин прилетел из Якутии, чтобы сделать важное сообщение в Петербургской академии наук. На вокзале незнакомцы затолкали Горькухина и Андрея в машину. Горькухин и Андрей были доставлены в загородный особняк, где выяснилось, что похитили их люди бизнесмена Заморщикова — тоже их бывшего одноклассника. Оказывается, Горькухин обнаружил в Якутии национальное святилище XVIII века.

MediaInfo:

Формат : AVI
Формат/Информация : Audio Video Interleave
Программа кодирования : FairUse Wizard - http://fairusewizard.com
Библиотека кодирования : The best and REALLY easy backup tool
Видео
Идентификатор : 0
Формат : MPEG-4 Visual
Профиль формата : Advanced Simple@L5
Параметр BVOP формата : 1
Параметр QPel формата : Нет
Параметр GMC формата : Без точки перехода
Параметр матрицы формата : Default (MPEG)
Режим смешивания : Сжатый битовый поток
Идентификатор кодека : XVID
Идентификатор кодека/Подсказка : XviD
Продолжительность : 48 м.
Битрейт : 1807 Кбит/сек
Ширина : 640 пикселей
Высота : 480 пикселей
Соотношение сторон : 4:3
Частота кадров : 25,000 кадров/сек
Цветовое пространство : YUV
Субдискретизация насыщенности : 4:2:0
Битовая глубина : 8 бит
Тип развёртки : Прогрессивная
Метод сжатия : С потерями
Бит/(Пиксели*Кадры) : 0.235
Размер потока : 629 Мбайт (90%)
Библиотека кодирования : XviD 1.2.0.dev47 (UTC 2006-11-01)
Аудио
Идентификатор : 1
Формат : AC-3
Формат/Информация : Audio Coding 3
Расширение режима : CM (complete main)
Идентификатор кодека : 2000
Продолжительность : 48 м.
Вид битрейта : Постоянный
Битрейт : 192 Кбит/сек
Каналы : 2 канала
Расположение каналов : Front: L R
Частота : 48,0 КГц
Битовая глубина : 16 бит
Метод сжатия : С потерями
Размер потока : 66,8 Мбайт (10%)
Выравнивание : Разделение по промежуткам
Продолжительность промежутка : 40 мс. (1,00 видеокадр)
Время предзагрузки промежутка : 500 мс.
Скриншоты:
Другие релизы сериала:

[Цитировать]

торрент забыл прилепить. не активная кнопка "скачать"

[Цитировать]



Показать сообщения:    

Текущее время: 08-Дек 12:52

Часовой пояс: UTC + 3


Вы не можете начинать темы
Вы не можете отвечать на сообщения
Вы не можете редактировать свои сообщения
Вы не можете удалять свои сообщения
Вы не можете голосовать в опросах
Вы не можете прикреплять файлы к сообщениям
Вы не можете скачивать файлы

!ВНИМАНИЕ!
Сайт не предоставляет электронные версии произведений, а занимается лишь коллекционированием и каталогизацией ссылок, присылаемых и публикуемых на форуме нашими читателями. Если вы являетесь правообладателем какого-либо представленного материала и не желаете, чтобы ссылка на него находилась в нашем каталоге, свяжитесь с нами, и мы незамедлительно удалим ее. Файлы для обмена на трекере предоставлены пользователями сайта, и администрация не несет ответственности за их содержание. Просьба не заливать файлы, защищенные авторскими правами, а также файлы нелегального содержания!