[ Сегодня идет свободное скачивание без начисления Download ]


Статистика раздачи
Нет
 
   
 
Top  
 
 
-Страна: Индия
Жанр: Боевик, комедия
Год выпуска: 2013
Продолжительность: 02:26:58--Язык: Хинди
Перевод: Любительское (одноголосое) gta24host (Alex)
Cубтитры: Нет--Режиссер: Саджит Кхан / Sajid Khan-В ролях: Аджай Девгн, Таманна Бхатия, Махеш Манджрекар, Пареш Равал, Зарина Вахаб, Лина Джумани, Адхиаян Суман, Анил Дхаван, Ритеш Дешмукх, Говардан Асрани, Чанки Пандей, Сонакши Синха--Описание: Эта история начинается с приезда в деревушку Рамнагар молодого человека Рави (Аджай Девгн), вернее, его возвращения домой спустя много лет после трагических событий в его семье.
Когда-то его отца, всеми уважаемого пандита Дхарамутхи (Анил Дхаван), местный богач и землевладелец Шер Сингх (Махеш Манжрекар) ложно обвинил в воровстве и выгнал с семьей из деревни.
Не снеся позора и разрушенной репутации, пандит покончил с собой.
Его сын, после неудачной попытки покушения на Шер Сингха, вынужден был бежать...
И теперь, спустя много лет, выросший Рави вернулся в родную деревню, дабы восстановить справедливость....- отсутствует
отсутствует-Качество видео: DVDRip
Формат видео: AVI-Видео: XVID, 720x304, 23.976 fps, 1178 Kbps
Аудио: MP3, 44.1 КHz, 2 сh, 192 Kbps-

Скриншоты:

-

MI:

Общее
Полное имя : C:INDIYA[Релизы]Hrabroe.serdce.2013.DVDRip.XviD.BwTorrents.avi
Формат : AVI
Формат/Информация : Audio Video Interleave
Размер файла : 1,45 Гбайт
Продолжительность : 2 ч. 26 м.
Общий поток : 1411 Кбит/сек
Программа кодирования : VirtualDubMod 1.5.10.3 | www.virtualdub-fr.org || (build 2550/release)
Библиотека кодирования : VirtualDubMod build 2550/release
Видео
Идентификатор : 0
Формат : MPEG-4 Visual
Профиль формата : Advanced [email protected]
Параметр BVOP формата : 1
Параметр QPel формата : Нет
Параметр GMC формата : Без точки перехода
Параметр матрицы формата : Default (H.263)
Идентификатор кодека : XVID
Идентификатор кодека/Подсказка : XviD
Продолжительность : 2 ч. 26 м.
Битрейт : 1178 Кбит/сек
Ширина : 720 пикселей
Высота : 304 пикселя
Соотношение сторон : 2,35:1
Частота кадров : 23,976 кадра/сек
Цветовое пространство : YUV
Субдискретизация насыщенности : 4:2:0
Битовая глубина : 8 бит
Тип развёртки : Прогрессивная
Метод сжатия : С потерями
Бит/(Пиксели*Кадры) : 0.224
Размер потока : 1,21 Гбайт (83%)
Библиотека кодирования : XviD 1.2.1 (UTC 2008-12-04)
Аудио
Идентификатор : 1
Формат : MPEG Audio
Версия формата : Version 1
Профиль формата : Layer 3
Режим : Joint stereo
Идентификатор кодека : 55
Идентификатор кодека/Подсказка : MP3
Продолжительность : 2 ч. 26 м.
Вид битрейта : Постоянный
Битрейт : 224 Кбит/сек
Каналы : 2 канала
Частота : 44,1 КГц
Метод сжатия : С потерями
Размер потока : 235 Мбайт (16%)
Выравнивание : Разделение по промежуткам
Продолжительность промежутка : 42 мс. (1,00 видеокадр)
Время предзагрузки промежутка : 500 мс.
Библиотека кодирования : LAME3.90.3


Последний раз редактировалось: Mr.Sherif (2013-07-30 07:34), всего редактировалось 1 раз

[Цитировать]

[sh]Добавьте рейтинги Кинопоиска и IMDb.[/sh]

[Цитировать]



Показать сообщения:    

Текущее время: 06-Дек 13:18

Часовой пояс: UTC + 3


Вы не можете начинать темы
Вы не можете отвечать на сообщения
Вы не можете редактировать свои сообщения
Вы не можете удалять свои сообщения
Вы не можете голосовать в опросах
Вы не можете прикреплять файлы к сообщениям
Вы не можете скачивать файлы

!ВНИМАНИЕ!
Сайт не предоставляет электронные версии произведений, а занимается лишь коллекционированием и каталогизацией ссылок, присылаемых и публикуемых на форуме нашими читателями. Если вы являетесь правообладателем какого-либо представленного материала и не желаете, чтобы ссылка на него находилась в нашем каталоге, свяжитесь с нами, и мы незамедлительно удалим ее. Файлы для обмена на трекере предоставлены пользователями сайта, и администрация не несет ответственности за их содержание. Просьба не заливать файлы, защищенные авторскими правами, а также файлы нелегального содержания!