[ Сегодня идет свободное скачивание без начисления Download ]


Статистика раздачи
Нет
 
   
 
Top  
 
 
-Завтрак у Тиффани / Breakfast at Tiffany's-Страна: США
Жанр: драма, мелодрама, комедия
Год выпуска: 1961
Продолжительность: 1:55:05-Перевод: Профессиональный (многоголосый закадровый) x 4
Перевод: Авторский (одноголосый закадровый) Алексей Медведев
Перевод: Авторский (одноголосый закадровый) Сергей Кузнецов (Деваль-Видео)
Перевод: Авторский (одноголосый закадровый) Юрий Живов
Cубтитры: русские (2 варианта), английские
Оригинальная аудиодорожка: английский-Режиссер: Блейк Эдвардс / Blake Edwards
В ролях:
Одри Хепберн (Holly Golightly,), Джордж Пеппард (Paul 'Fred' Varjak), Патриция Нил (2-E), Бадди Эбсен (Doc Golightly), Мартин Болсам (O.J. Berman), Хосе Луис де Вильялонга (Jos? da Silva Pereira), Джон МакГайвер (Tiffany's Salesman), Алан Рид (Sally Tomato), Дороти Уитни (Mag Wildwood), Беверли Пауэрс (Nightclub Stripper), Стэнли Адамс (Rusty Trawler), Клод Страуд (Sid Arbuck)-Описание: Лучшая роль "повзрослевшей" Одри Хепберн (1929-1993) (ей уже 32 года), в картине, отличающейся своим нестандартным сюжетом и блестящей музыкой. Первая знаменитая картина короля комедии 60-80-х Блэйка Эдвардса (родился в 1922). Позднее будут созданы цикл "Розовая Пантера", "Большие гонки", "Вечеринка" и многое, многое другое...
Переехав в новую квартиру, начинающий писатель (Джордж Пеппард) сразу же знакомится со своей соседкой Холли, крайне эксцентричной девушкой, постоянно окруженной мужчинами и болтающей без умолку. Их явно тянет к друг другу, но взаимоотношения развиваются странно и мучительно, поскольку она, в каком-то смысле, дорогая девушка по вызову, а он находится на содержании у замужней женщины, оплачивающей его квартиру. Обоим очень нужны деньги, а их нет, и это приводит в отчаяние...-[kp]17721[/kp][imdb]tt0054698[/imdb]
Доп. информация: Спасибо Diablo за синхронизацию дорожки №2 и xamster88 за чистый голос Живова.-Качество видео: BDRemux [HDRoad]
Формат видео: MKV
Видео: MPEG-4 AVC Video 31883 kbps 1080p / 23,976 fps / 16:9 / High Profile 4.1
Аудио: Dolby Digital Audio Russian 5.1 / 48 kHz / 640 kbps [MVO Universal он же CEE]
Аудио: Dolby Digital Audio Russian 5.1 / 48 kHz / 448 kbps [MVO Film Prestige]
Аудио: Dolby Digital Audio Russian 2.0 / 48 kHz / 192 kbps [MVO неизвестный с личного пиратского ДВД]
Аудио: Dolby Digital Audio Russian 2.0 / 48 kHz / 192 kbps [ДВД Магия]
Аудио: Dolby Digital Audio Russian 2.0 / 48 kHz / 192 kbps [Медведев]
Аудио: Dolby Digital Audio Russian 2.0 / 48 kHz / 192 kbps [Кузнецов]
Аудио: DTS-HD Master Audio Russian 3364 kbps 5.1 / 48 kHz / 24-bit (DTS Core: 5.1 / 48 kHz / 1509 kbps / 24-bit) [Живов]
Аудио: DTS-HD Master Audio English 3340 kbps 5.1 / 48 kHz / 24-bit (DTS Core: 5.1 / 48 kHz / 1509 kbps / 24-bit)

MI

[color=black]General
Complete name                    : X:\  -= Фильмы =-\Завтрак у Тиффани (1961. Breakfast at Tiffany's).mkv
Format                           : Matroska
File size                        : 32.5 GiB
Duration                         : 1h 55mn
Overall bit rate                 : 40.4 Mbps
Movie name                       : BREAKFAST_AT_TIFFANYS [rutracker.org]
Encoded date                     : UTC 2011-09-12 18:07:13
Writing application              : mkvmerge v4.9.1 ('Ich will') сборка от Jul 11 2011 23:53:15
Writing library                  : libebml v1.2.1 + libmatroska v1.1.1
Video
ID                               : 1
Format                           : AVC
Format/Info                      : Advanced Video Codec
Format profile                   : High@L4.1
Format settings, CABAC           : Yes
Format settings, ReFrames        : 2 frames
Muxing mode                      : Container profile=Unknown@4.1
Codec ID                         : V_MPEG4/ISO/AVC
Duration                         : 1h 55mn
Bit rate mode                    : Variable
Width                            : 1 920 pixels
Height                           : 1 080 pixels
Display aspect ratio             : 16:9
Frame rate                       : 23.976 fps
Color space                      : YUV
Chroma subsampling               : 4:2:0
Bit depth                        : 8 bits
Scan type                        : Progressive
Language                         : English
Audio #1
ID                               : 2
Format                           : AC-3
Format/Info                      : Audio Coding 3
Mode extension                   : CM (complete main)
Codec ID                         : A_AC3
Duration                         : 1h 55mn
Bit rate mode                    : Constant
Bit rate                         : 640 Kbps
Channel(s)                       : 6 channels
Channel positions                : Front: L C R, Side: L R, LFE
Sampling rate                    : 48.0 KHz
Bit depth                        : 16 bits
Stream size                      : 527 MiB (2%)
Title                            : MVO [CEE]
Language                         : Russian
Audio #2
ID                               : 3
Format                           : AC-3
Format/Info                      : Audio Coding 3
Mode extension                   : CM (complete main)
Codec ID                         : A_AC3
Duration                         : 1h 55mn
Bit rate mode                    : Constant
Bit rate                         : 448 Kbps
Channel(s)                       : 6 channels
Channel positions                : Front: L C R, Side: L R, LFE
Sampling rate                    : 48.0 KHz
Bit depth                        : 16 bits
Stream size                      : 369 MiB (1%)
Title                            : MVO [Film Prestige]
Language                         : Russian
Audio #3
ID                               : 4
Format                           : AC-3
Format/Info                      : Audio Coding 3
Mode extension                   : CM (complete main)
Codec ID                         : A_AC3
Duration                         : 1h 55mn
Bit rate mode                    : Constant
Bit rate                         : 192 Kbps
Channel(s)                       : 2 channels
Channel positions                : Front: L R
Sampling rate                    : 48.0 KHz
Bit depth                        : 16 bits
Stream size                      : 158 MiB (0%)
Title                            : MVO [с пиратского диска]
Language                         : Russian
Audio #4
ID                               : 5
Format                           : AC-3
Format/Info                      : Audio Coding 3
Mode extension                   : CM (complete main)
Codec ID                         : A_AC3
Duration                         : 1h 55mn
Bit rate mode                    : Constant
Bit rate                         : 192 Kbps
Channel(s)                       : 2 channels
Channel positions                : Front: L R
Sampling rate                    : 48.0 KHz
Bit depth                        : 16 bits
Stream size                      : 158 MiB (0%)
Title                            : MVO [неизвестный]
Language                         : Russian
Audio #5
ID                               : 6
Format                           : AC-3
Format/Info                      : Audio Coding 3
Mode extension                   : CM (complete main)
Codec ID                         : A_AC3
Duration                         : 1h 55mn
Bit rate mode                    : Constant
Bit rate                         : 192 Kbps
Channel(s)                       : 2 channels
Channel positions                : Front: L R
Sampling rate                    : 48.0 KHz
Bit depth                        : 16 bits
Stream size                      : 158 MiB (0%)
Title                            : AVO [Кузнецов, Деваль-Видео]
Language                         : Russian
Audio #6
ID                               : 7
Format                           : AC-3
Format/Info                      : Audio Coding 3
Mode extension                   : CM (complete main)
Codec ID                         : A_AC3
Duration                         : 1h 55mn
Bit rate mode                    : Constant
Bit rate                         : 192 Kbps
Channel(s)                       : 2 channels
Channel positions                : Front: L R
Sampling rate                    : 48.0 KHz
Bit depth                        : 16 bits
Stream size                      : 158 MiB (0%)
Title                            : AVO [Медведев]
Language                         : Russian
Audio #7
ID                               : 8
Format                           : DTS
Format/Info                      : Digital Theater Systems
Format profile                   : MA
Codec ID                         : A_DTS
Duration                         : 1h 55mn
Bit rate mode                    : Variable
Channel(s)                       : 6 channels
Channel positions                : Front: L C R, Side: L R, LFE
Sampling rate                    : 48.0 KHz
Bit depth                        : 24 bits
Title                            : AVO [Живов]
Language                         : Russian
Audio #8
ID                               : 9
Format                           : DTS
Format/Info                      : Digital Theater Systems
Format profile                   : MA
Codec ID                         : A_DTS
Duration                         : 1h 55mn
Bit rate mode                    : Variable
Channel(s)                       : 6 channels
Channel positions                : Front: L C R, Side: L R, LFE
Sampling rate                    : 48.0 KHz
Bit depth                        : 24 bits
Language                         : English
Text #1
ID                               : 10
Format                           : UTF-8
Codec ID                         : S_TEXT/UTF8
Codec ID/Info                    : UTF-8 Plain Text
Title                            : CEE
Language                         : Russian
Text #2
ID                               : 11
Format                           : UTF-8
Codec ID                         : S_TEXT/UTF8
Codec ID/Info                    : UTF-8 Plain Text
Title                            : Film Prestige
Language                         : Russian
Text #3
ID                               : 12
Format                           : UTF-8
Codec ID                         : S_TEXT/UTF8
Codec ID/Info                    : UTF-8 Plain Text
Language                         : English
Menu
00:00:00.000                     : en:00:00:00.000
00:13:20.633                     : en:00:13:20.633
00:17:03.564                     : en:00:17:03.564
00:24:44.066                     : en:00:24:44.066
00:39:54.225                     : en:00:39:54.225
00:41:55.471                     : en:00:41:55.471
00:43:50.503                     : en:00:43:50.503
00:52:02.703                     : en:00:52:02.703
00:57:51.885                     : en:00:57:51.885
01:04:34.662                     : en:01:04:34.662
01:19:41.944                     : en:01:19:41.944
01:26:02.908                     : en:01:26:02.908
01:33:07.040                     : en:01:33:07.040
01:44:36.479                     : en:01:44:36.479[/color]

[Цитировать]



Показать сообщения:    

Текущее время: 09-Дек 08:53

Часовой пояс: UTC + 3


Вы не можете начинать темы
Вы не можете отвечать на сообщения
Вы не можете редактировать свои сообщения
Вы не можете удалять свои сообщения
Вы не можете голосовать в опросах
Вы не можете прикреплять файлы к сообщениям
Вы не можете скачивать файлы

!ВНИМАНИЕ!
Сайт не предоставляет электронные версии произведений, а занимается лишь коллекционированием и каталогизацией ссылок, присылаемых и публикуемых на форуме нашими читателями. Если вы являетесь правообладателем какого-либо представленного материала и не желаете, чтобы ссылка на него находилась в нашем каталоге, свяжитесь с нами, и мы незамедлительно удалим ее. Файлы для обмена на трекере предоставлены пользователями сайта, и администрация не несет ответственности за их содержание. Просьба не заливать файлы, защищенные авторскими правами, а также файлы нелегального содержания!