[ Сегодня идет свободное скачивание без начисления Download ]


Статистика раздачи
Нет
 
   
 
Top  
 
 
Иисус из Назарета / Jesus of Nazareth{4 Disc Set}-- Год выпуска: 1977
Страна: Великобритания, Италия
Студия: Incorporated Television Company, Radiotelevisione Italiana
Жанр: драма, биография, история
Продолжительность: 01:36:45.791 + 01:38:03.708 + 01:37:46.333 + 01:38:39.416
Перевод: Профессиональный (многоголосый закадровый)
Cубтитры: русские (Full-length), немецкие (форсированные)
Оригинальная аудиодорожка: английский--Режиссер: Франко Дзеффирелли / Franco Zeffirelli
В ролях: Роберт Пауэлл, Энн Бэнкрофт, Эрнест Боргнайн, Джеймс Фарентино, Иэн МакШейн, Кристофер Пламмер, Оливия Хасси, Тони Фогель, Джон Даттин, Майкл Йорк
Описание: Жизненный путь Иисуса Христа от Рождества до Вознесения воссоздан здесь до мельчайших подробностей. Это биография реального человека, именно в этом качестве вызывающая интерес у жителя XX столетия с его повышенным интересом к собственной личности. Даже те, кто хорошо знаком с текстом Нового Завета, редко различают за ним историческое событие - настолько от нас далеки эти времена.
Здесь в старые мехи влито молодое вино. Юношеские странствия и крещение, обретение дара и проповедь нового учения, опала, предательство учеников и мученическая смерть - все это вехи земного пути Иисуса, история сына человеческого.
--Доп. информация:

Дополнительно

Диск пересобран мною из оригинального блурэя, используемое програмное обеспечение: BD Reauthor от DVDLogic Software (http://www.dvd-logic.com) и Sonic Scenarist BD, Adobe Photoshop, SubRip, SubtitleWorkshop, Sony Sound Forge, Eac3to. Структура диска полностью сохранена.
Воспроизведение проверено на Arcsoft Total Media Player 5, Arcsoft Total Media Player 3, Power DVD10, Scenarist QC 1.5, Dune BD-Prime 3.0 и бытовом блурей плеере LG BX-580. (Содержимое папки "AACS" перенесено в "ANY!")
Немецкая аудио-дорожка и субтитры - доступны опционально, с помощью меню проигрывателя.

Лучший фильм 20 столетия (рецензия MEGAS ALEXANDROS):

Я отношусь к тем людям, которые весьма пристрастны и даже фанатичны в отношении того, что им небезразлично и дорого. Ибо это касается главных ценностей и мировоззренческих, этических приоритетов. Потому каким бы ни был прекрасным и замечательным фильм о каком-либо из обычных, рядовых людей, какой бы положительный заряд он не нес в себе, я не назвал бы его самым лучшим, потому что, на мой взгляд, здесь необходим фильм о Великой Личности. О том, кто несет посыл ко всему человечеству и известен всем и каждому.
И если кто-то берется создать такой фильм, он взваливает на свои плечи гигантскую задачу. Но еще я думаю, что тот, кто решается на такой шаг, идет к воплощению своей Великой Мечты — донести до людей зримые образы ушедших, но оставшихся в Вечности эпох, зримые образы тех, кто в себе эти эпохи воплощает и перешагивает через времена… Но взяться за экранизацию жизни Спасителя, Богочеловека — безусловный подвиг. Со всеми вытекающими отсюда последствиями.
Франко Дзефирелли — режиссер смелый в этом отношении, будь то экранизация Шекспира или постановка Верди. Его фильмы всегда исторически достоверны (интерьеры, обстановка, костюмы, реалии эпох). Он любит и не стесняется снимать красивых актеров, за что ему особая благодарность. Его герои прекрасны в любом состоянии — в горе и в радости, в крови и слезах. Особенно, конечно, это касается «Иисуиа из Назарета». В свое время, когда только появился у нас в стране этот фильм на VHS, с записью отвратительного качества и всевозможными вариантами перевода типа Володарского, мы устраивали дома просмотры для друзей. И все обливались слезами, утираясь бумажными салфетками, и совершенно не смущались слез. И никакой иронии в этом нет.
Роберт Пауэлл — великолепный актер, он очень интересен в таких картинах, как «Оставшийся в живых», «Арлекин», в фильме о Байроне (не помню названия). Но таким, как в полотне Дзефирелли, конечно, он нигде не был и не мог быть.
Перед нами предстает невероятно человечный, чувствующий, сострадающий Христос, Учитель — Сын Человеческий. Мурашки по коже от таких сцен, как воскрешение дочери Иаира и особенно Лазаря (здесь — до сих пор, сколько не смотрю). Эмоциональность этого образа и его воздействия такова, что даже сейчас я это ощущаю. А момент, когда он выходит к Понтию Пилату в терновом венце и багрянице, таков, что слышен шум в ушах и кровь стынет в жилах.
И так прекрасен Иисус с его ярко-прозрачными, небесно-изумрудными глазами в обрамлении густых черных ресниц, невероятно выразительными, глубокими, словно видишь в ней весь Свет вселенной, что совершенно забываешь, что перед тобой актер, земной смертный человек. Думаешь о нем, как об Иисусе, и в этом нет ничего кощунственного. Сильный, мощный образ, а голос какой! Мягкий, проникновенный, почти нежный, и вдруг — властный, повелевающий стихиями и демонами. (Кстати, если вы слышали рок-оперу Э. Л. Уэббера «Иисус Христос — Суперзвезда», где партии Иисуса исполняет Гиллан — вот где похожи голоса и восприятие образа. Очень сильное впечатление от обоих произведений). Гениальное попадание в столь сложный образ, просто невероятно.
Столь же хороша Оливия Хасси в образе Марии, особенно, конечно потрясает сцена Благовещения. Когда вдоль пустых улиц вдруг проносится ветер, Мария оборачивается… И потом, когда ночью вдруг воет собака. Это тоже вызывает мурашки по коже. Необыкновенно понравился George Voyages в роли плотника Иосифа. По православной традиции Иосиф должен быть старцем, но у католиков это вроде не распространено. По крайней мере здесь нет никакой ереси: Иосиф — вдовец, у него дети от прежнего брака, не имеющие родства с Иисусом, они только сводные братья, как и положено по всем канонам. То, что Иосиф, будучи еще красивым мужчиной в силах, не покусился на Девственность своей законной супруги, поверив в слова Ангела о том, кого Она носит во чреве, тем более делает ему честь и усиливает святость, и особенно удачно подчеркивается это сценой, когда он решает, отпустить ее, отдать на суд или сохранить все в тайне. Фильм одновременно каноничный, эстетичный и необыкновенно жизненный.
Еще один актер, часто работающий с Дзефирелли — Майкл Йорк. Знакомый нам опять же по «Ромео и Джульетте», здесь он — неистовый обличитель пороков Иоанн Креститель, и он тоже прекрасен и органичен в этой роли. Бесспорно, это лучшая его роль.
И конечно, хочется отметить великолепного Кристофера Пламмера (Аристотеля из любимого мной «Александра» О. Стоуна). Здесь он очень хорош в роли царя Ирода Антипы. Блеснул в этом фильме и Питер Устинов в роли Ирода Великого, маленький, но интересный образ создан Клаудией Кардинале (блудница).
Запомнились яркие образы Иродиады, Саломеи, Понтия Пилата, Иуды, Петра. Да в общем, все актеры великолепны. Только мне кажется, что Анна Бэнкрофт не совсем подходит для роли Марии Магдалины. Здесь она показана уже немолодой, уставшей от своего образа жизни и, видимо, не столь уж дорогой куртизанкой (даже это слишком громкое для нее слово). Уставшая от порочной жизни и немолодая женщина, уже не привлекающая богатых клиентов, вполне легко могла отказаться от опостылевшего ей образа жизни и отправиться за духовными исканиями.
Смысл же этой истории был в том, что Магдалина была молода, популярна, очень богата и красива, и именно увидев и услышав Иисуса, она порвала со своей прежде вполне ее устраивавшей жизнью. Более ярко можно было бы показать и самого молодого из апостолов — Иоанна Богослова. Ожидалось, возможно, побольше чудес типа явлений Ангелов, хождения по водам, но в конце концов все это — настолько второстепенно, что не имеет значения. Общее впечатление — потрясение и любовь на все времена.
Поражает до глубины души и музыка, она пронизывает весь фильм, окрашивая каждую сцену в особенные полутона и заставляет душу тревожиться и ожидать чуда. Великолепна операторская работа. Все вложили в фильм душу. Отдать душу за Христа — значит обрести ее. Думаю, они этого достигли. Хотелось бы, чтобы было так. И фильм обрел душу — особую, не сопоставимую ни с чем.
Поэтому я без сомнения называю фильм «Иисус из Назарета» лучшим и величайшим фильмом 20 века и, возможно, всех времен. Это фильм для всех людей, независимо от их религии.10 из 10

-
-Тип релиза: Blu-ray disc (custom) [За исходник - спасибо CHDBits!]
Контейнер: BDMV
Видео: MPEG-4 AVC Video, 1920х1080p (16:9), ~18000 kbps, 23,976 fps, High Profile 4.1
Аудио 1: Dolby Digital Audio 192 kbps 2.0 / 48 kHz / 192 kbps / DN -4dB / Dolby Surround [Russian] (MVO)
Аудио 2: DTS-HD Master Audio 1080 kbps 2.0 / 48 kHz / 1080 kbps / 16-bit (DTS Core: 2.0 / 48 kHz / 768 kbps / 16-bit) [English]
Аудио 3: DTS-HD Master Audio 1067 kbps 2.0 / 48 kHz / 1067 kbps / 16-bit (DTS Core: 2.0 / 48 kHz / 768 kbps / 16-bit) [German]
Размер: 59.75 GB (64,154,032,560 байт)

BDInfo


Disc1:

DISC INFO:
Disc Title:     JESUS_F_NTH_D1_BLUEBIRD
Disc Size:      15 871 348 972 bytes
Protection:     AACS
BD-Java:        No
BDInfo:         0.5.8
PLAYLIST REPORT:
Name:                   00002.MPLS
Length:                 1:36:45.791 (h:m:s.ms)
Size:                   15 726 968 832 bytes
Total Bitrate:          21,67 Mbps
VIDEO:
Codec                   Bitrate             Description
-----                   -------             -----------
MPEG-4 AVC Video        17999 kbps          1080p / 24 fps / 16:9 / High Profile 4.1
AUDIO:
Codec                           Language        Bitrate         Description
-----                           --------        -------         -----------
Dolby Digital Audio             Russian         192 kbps        2.0 / 48 kHz / 192 kbps / DN -4dB / Dolby Surround
DTS-HD Master Audio             English         1080 kbps       2.0 / 48 kHz / 1080 kbps / 16-bit (DTS Core: 2.0 / 48 kHz / 768 kbps / 16-bit)
DTS-HD Master Audio             German          1067 kbps       2.0 / 48 kHz / 1067 kbps / 16-bit (DTS Core: 2.0 / 48 kHz / 768 kbps / 16-bit)
SUBTITLES:
Codec                           Language        Bitrate         Description
-----                           --------        -------         -----------
Presentation Graphics           Russian         28,202 kbps
Presentation Graphics           German          1,904 kbps
FILES:
Name            Time In         Length          Size            Total Bitrate
----            -------         ------          ----            -------------
00005.M2TS      0:00:00.000     1:36:45.791     15 726 968 832  21 671
CHAPTERS:
Number          Time In         Length          Avg Video Rate  Max 1-Sec Rate  Max 1-Sec Time  Max 5-Sec Rate  Max 5-Sec Time  Max 10Sec Rate  Max 10Sec Time  Avg Frame Size  Max Frame Size  Max Frame Time
------          -------         ------          --------------  --------------  --------------  --------------  --------------  --------------  --------------  --------------  --------------  --------------
1               0:00:00.000     0:12:56.250     18 075 kbps     31 471 kbps     00:07:58.375    27 654 kbps     00:04:43.666    26 781 kbps     00:04:38.624    94 136 bytes    303 551 bytes   00:05:23.750
2               0:12:56.250     0:05:34.875     18 382 kbps     28 232 kbps     00:16:08.250    26 598 kbps     00:16:07.291    24 850 kbps     00:16:05.208    95 742 bytes    351 367 bytes   00:16:13.208
3               0:18:31.125     0:02:20.875     19 243 kbps     31 774 kbps     00:18:41.666    27 868 kbps     00:18:38.083    26 376 kbps     00:18:33.083    100 224 bytes   329 817 bytes   00:18:45.125
4               0:20:52.000     0:09:37.750     17 157 kbps     34 650 kbps     00:26:11.958    32 532 kbps     00:26:08.291    29 974 kbps     00:26:03.374    89 360 bytes    308 741 bytes   00:26:12.000
5               0:30:29.750     0:12:21.333     17 868 kbps     35 723 kbps     00:37:39.083    32 864 kbps     00:37:39.083    30 540 kbps     00:37:39.083    93 064 bytes    356 224 bytes   00:37:39.125
6               0:42:51.083     0:11:19.166     14 062 kbps     21 182 kbps     00:49:05.791    18 051 kbps     00:49:04.083    17 180 kbps     00:49:03.791    73 238 bytes    229 935 bytes   00:42:54.083
7               0:54:10.250     0:08:23.958     18 470 kbps     29 998 kbps     00:57:52.708    26 845 kbps     00:57:48.750    26 110 kbps     00:57:43.708    96 195 bytes    302 725 bytes   00:59:22.916
8               1:02:34.208     0:04:19.666     18 773 kbps     29 163 kbps     01:05:16.125    25 235 kbps     01:05:28.000    24 419 kbps     01:05:27.916    97 779 bytes    281 506 bytes   01:05:14.458
9               1:06:53.875     0:05:59.625     15 628 kbps     23 732 kbps     01:09:17.583    22 220 kbps     01:09:14.250    21 894 kbps     01:09:09.583    81 395 bytes    284 855 bytes   01:09:46.000
10              1:12:53.500     0:08:22.875     18 328 kbps     28 651 kbps     01:17:58.500    24 123 kbps     01:17:58.458    22 240 kbps     01:17:57.416    95 457 bytes    263 137 bytes   01:18:35.625
11              1:21:16.375     0:14:48.250     21 627 kbps     32 686 kbps     01:31:55.250    29 392 kbps     01:31:00.041    28 060 kbps     01:28:56.125    112 643 bytes   346 923 bytes   01:31:04.750
12              1:36:04.625     0:00:41.166     16 116 kbps     20 573 kbps     01:36:37.583    18 638 kbps     01:36:28.500    18 076 kbps     01:36:28.583    84 024 bytes    367 011 bytes   01:36:43.625

Disc2:

DISC INFO:
Disc Title:     JESUS_F_NTH_D2_BLUEBIRD
Disc Size:      16 088 841 132 bytes
Protection:     AACS
BD-Java:        No
BDInfo:         0.5.8
PLAYLIST REPORT:
Name:                   00002.MPLS
Length:                 1:38:03.708 (h:m:s.ms)
Size:                   15 944 411 136 bytes
Total Bitrate:          21,68 Mbps
VIDEO:
Codec                   Bitrate             Description
-----                   -------             -----------
MPEG-4 AVC Video        18000 kbps          1080p / 24 fps / 16:9 / High Profile 4.1
AUDIO:
Codec                           Language        Bitrate         Description
-----                           --------        -------         -----------
Dolby Digital Audio             Russian         192 kbps        2.0 / 48 kHz / 192 kbps / DN -4dB / Dolby Surround
DTS-HD Master Audio             English         1084 kbps       2.0 / 48 kHz / 1084 kbps / 16-bit (DTS Core: 2.0 / 48 kHz / 768 kbps / 16-bit)
DTS-HD Master Audio             German          1062 kbps       2.0 / 48 kHz / 1062 kbps / 16-bit (DTS Core: 2.0 / 48 kHz / 768 kbps / 16-bit)
SUBTITLES:
Codec                           Language        Bitrate         Description
-----                           --------        -------         -----------
Presentation Graphics           Russian         27,487 kbps
Presentation Graphics           German          3,118 kbps
FILES:
Name            Time In         Length          Size            Total Bitrate
----            -------         ------          ----            -------------
00005.M2TS      0:00:00.000     1:38:03.708     15 944 411 136  21 679
CHAPTERS:
Number          Time In         Length          Avg Video Rate  Max 1-Sec Rate  Max 1-Sec Time  Max 5-Sec Rate  Max 5-Sec Time  Max 10Sec Rate  Max 10Sec Time  Avg Frame Size  Max Frame Size  Max Frame Time
------          -------         ------          --------------  --------------  --------------  --------------  --------------  --------------  --------------  --------------  --------------  --------------
1               0:00:00.000     0:03:59.666     16 609 kbps     35 246 kbps     00:01:02.374    30 905 kbps     00:00:58.500    29 472 kbps     00:00:56.541    86 488 bytes    330 867 bytes   00:00:57.583
2               0:03:59.666     0:08:02.041     21 037 kbps     33 033 kbps     00:10:27.666    30 488 kbps     00:10:47.791    29 414 kbps     00:10:47.125    109 569 bytes   424 625 bytes   00:07:20.000
3               0:12:01.708     0:05:13.541     17 733 kbps     33 126 kbps     00:17:14.208    29 542 kbps     00:17:10.250    28 207 kbps     00:17:05.208    92 358 bytes    394 986 bytes   00:17:11.625
4               0:17:15.250     0:13:10.750     19 901 kbps     35 377 kbps     00:17:16.208    31 495 kbps     00:29:14.958    30 268 kbps     00:29:14.958    103 651 bytes   325 168 bytes   00:17:16.250
5               0:30:26.000     0:08:35.750     21 472 kbps     32 420 kbps     00:31:58.374    29 780 kbps     00:30:52.583    28 964 kbps     00:30:52.583    111 832 bytes   425 614 bytes   00:33:03.000
6               0:39:01.750     0:11:24.916     12 136 kbps     20 459 kbps     00:42:00.958    18 905 kbps     00:42:00.958    16 848 kbps     00:41:58.125    63 207 bytes    214 617 bytes   00:39:03.750
7               0:50:26.666     0:06:27.875     13 033 kbps     24 813 kbps     00:50:47.666    22 966 kbps     00:50:45.916    22 051 kbps     00:50:41.375    67 878 bytes    240 174 bytes   00:50:36.458
8               0:56:54.541     0:12:01.875     19 563 kbps     32 166 kbps     01:01:30.750    29 021 kbps     01:01:17.208    27 118 kbps     01:01:12.166    101 889 bytes   324 920 bytes   00:59:37.250
9               1:08:56.416     0:14:03.416     19 641 kbps     32 538 kbps     01:18:15.250    28 224 kbps     01:22:21.083    26 381 kbps     01:22:18.166    102 298 bytes   297 333 bytes   01:22:51.791
10              1:22:59.833     0:10:13.583     17 160 kbps     28 868 kbps     01:27:45.166    25 937 kbps     01:27:44.583    23 784 kbps     01:31:34.458    89 375 bytes    324 401 bytes   01:31:20.583
11              1:33:13.416     0:04:08.833     17 282 kbps     32 865 kbps     01:37:17.666    30 012 kbps     01:37:16.583    28 367 kbps     01:37:11.541    90 010 bytes    310 437 bytes   01:33:26.416
12              1:37:22.250     0:00:41.458     12 738 kbps     17 035 kbps     01:37:52.208    15 285 kbps     01:37:50.875    14 704 kbps     01:37:50.208    66 411 bytes    324 672 bytes   01:38:02.250

Disc3:

DISC INFO:
Disc Title:     JESUS_F_NTH_D3_BLUEBIRD
Disc Size:      16 044 868 916 bytes
Protection:     AACS
BD-Java:        No
BDInfo:         0.5.8
PLAYLIST REPORT:
Name:                   00002.MPLS
Length:                 1:37:46.333 (h:m:s.ms)
Size:                   15 900 137 472 bytes
Total Bitrate:          21,68 Mbps
VIDEO:
Codec                   Bitrate             Description
-----                   -------             -----------
MPEG-4 AVC Video        17999 kbps          1080p / 24 fps / 16:9 / High Profile 4.1
AUDIO:
Codec                           Language        Bitrate         Description
-----                           --------        -------         -----------
Dolby Digital Audio             Russian         192 kbps        2.0 / 48 kHz / 192 kbps / DN -4dB / Dolby Surround
DTS-HD Master Audio             English         1089 kbps       2.0 / 48 kHz / 1089 kbps / 16-bit (DTS Core: 2.0 / 48 kHz / 768 kbps / 16-bit)
DTS-HD Master Audio             German          1064 kbps       2.0 / 48 kHz / 1064 kbps / 16-bit (DTS Core: 2.0 / 48 kHz / 768 kbps / 16-bit)
SUBTITLES:
Codec                           Language        Bitrate         Description
-----                           --------        -------         -----------
Presentation Graphics           Russian         26,629 kbps
Presentation Graphics           German          2,316 kbps
FILES:
Name            Time In         Length          Size            Total Bitrate
----            -------         ------          ----            -------------
00005.M2TS      0:00:00.000     1:37:46.333     15 900 137 472  21 683
CHAPTERS:
Number          Time In         Length          Avg Video Rate  Max 1-Sec Rate  Max 1-Sec Time  Max 5-Sec Rate  Max 5-Sec Time  Max 10Sec Rate  Max 10Sec Time  Avg Frame Size  Max Frame Size  Max Frame Time
------          -------         ------          --------------  --------------  --------------  --------------  --------------  --------------  --------------  --------------  --------------  --------------
1               0:00:00.000     0:14:09.625     18 176 kbps     29 435 kbps     00:04:27.291    25 744 kbps     00:05:02.500    25 154 kbps     00:03:55.874    94 660 bytes    328 944 bytes   00:05:54.625
2               0:14:09.625     0:09:10.750     16 888 kbps     23 934 kbps     00:22:27.333    22 384 kbps     00:22:09.416    22 036 kbps     00:22:07.375    87 961 bytes    330 280 bytes   00:22:15.375
3               0:23:20.375     0:09:00.625     14 959 kbps     29 894 kbps     00:23:35.125    25 217 kbps     00:25:31.250    25 085 kbps     00:25:26.208    77 909 bytes    284 969 bytes   00:25:55.583
4               0:32:21.000     0:15:27.791     19 224 kbps     29 817 kbps     00:42:46.875    26 986 kbps     00:42:43.833    25 902 kbps     00:39:33.083    100 124 bytes   333 267 bytes   00:39:18.958
5               0:47:48.791     0:06:52.458     18 422 kbps     29 611 kbps     00:52:44.583    27 399 kbps     00:52:44.583    25 138 kbps     00:52:43.708    95 946 bytes    272 521 bytes   00:47:54.791
6               0:54:41.250     0:09:12.416     20 870 kbps     30 853 kbps     00:55:53.166    29 048 kbps     00:55:34.166    27 008 kbps     00:55:30.125    108 699 bytes   313 228 bytes   01:00:28.916
7               1:03:53.666     0:07:42.875     20 243 kbps     29 857 kbps     01:09:07.500    27 686 kbps     01:09:05.916    24 671 kbps     01:09:03.916    105 435 bytes   272 088 bytes   01:09:49.500
8               1:11:36.541     0:06:02.666     19 543 kbps     31 989 kbps     01:15:01.750    27 271 kbps     01:14:57.791    25 450 kbps     01:14:54.291    101 784 bytes   302 944 bytes   01:16:26.166
9               1:17:39.208     0:04:31.791     13 455 kbps     21 034 kbps     01:17:41.583    17 533 kbps     01:20:04.708    17 131 kbps     01:20:04.708    70 079 bytes    253 790 bytes   01:17:41.208
10              1:22:11.000     0:10:32.500     16 336 kbps     30 061 kbps     01:31:56.000    26 013 kbps     01:31:54.291    24 844 kbps     01:31:51.250    85 081 bytes    280 715 bytes   01:32:43.500
11              1:32:43.500     0:04:22.083     18 561 kbps     30 194 kbps     01:33:49.250    27 239 kbps     01:33:48.333    24 156 kbps     01:33:44.083    96 673 bytes    316 429 bytes   01:33:03.875
12              1:37:05.583     0:00:40.750     11 908 kbps     15 685 kbps     01:37:34.541    13 899 kbps     01:37:32.958    13 585 kbps     01:37:32.541    62 086 bytes    286 132 bytes   01:37:44.583

Disc4:

DISC INFO:
Disc Title:     JESUS_F_NTH_D4_BLUEBIRD
Disc Size:      16 148 973 540 bytes
Protection:     AACS
BD-Java:        No
BDInfo:         0.5.8
PLAYLIST REPORT:
Name:                   00002.MPLS
Length:                 1:38:39.416 (h:m:s.ms)
Size:                   16 004 462 592 bytes
Total Bitrate:          21,63 Mbps
VIDEO:
Codec                   Bitrate             Description
-----                   -------             -----------
MPEG-4 AVC Video        17979 kbps          1080p / 24 fps / 16:9 / High Profile 4.1
AUDIO:
Codec                           Language        Bitrate         Description
-----                           --------        -------         -----------
Dolby Digital Audio             Russian         192 kbps        2.0 / 48 kHz / 192 kbps / DN -4dB / Dolby Surround
DTS-HD Master Audio             English         1066 kbps       2.0 / 48 kHz / 1066 kbps / 16-bit (DTS Core: 2.0 / 48 kHz / 768 kbps / 16-bit)
DTS-HD Master Audio             German          1059 kbps       2.0 / 48 kHz / 1059 kbps / 16-bit (DTS Core: 2.0 / 48 kHz / 768 kbps / 16-bit)
SUBTITLES:
Codec                           Language        Bitrate         Description
-----                           --------        -------         -----------
Presentation Graphics           Russian         28,039 kbps
Presentation Graphics           German          2,049 kbps
FILES:
Name            Time In         Length          Size            Total Bitrate
----            -------         ------          ----            -------------
00005.M2TS      0:00:00.000     1:38:39.416     16 004 462 592  21 630
CHAPTERS:
Number          Time In         Length          Avg Video Rate  Max 1-Sec Rate  Max 1-Sec Time  Max 5-Sec Rate  Max 5-Sec Time  Max 10Sec Rate  Max 10Sec Time  Avg Frame Size  Max Frame Size  Max Frame Time
------          -------         ------          --------------  --------------  --------------  --------------  --------------  --------------  --------------  --------------  --------------  --------------
1               0:00:00.000     0:16:02.833     19 832 kbps     38 156 kbps     00:00:16.249    33 234 kbps     00:00:15.291    29 930 kbps     00:00:12.291    103 285 bytes   437 043 bytes   00:00:16.333
2               0:16:02.833     0:06:11.291     12 773 kbps     17 481 kbps     00:21:48.000    16 684 kbps     00:21:40.916    16 585 kbps     00:21:41.000    66 525 bytes    216 777 bytes   00:22:07.041
3               0:22:14.125     0:08:11.208     13 802 kbps     20 947 kbps     00:28:32.416    18 316 kbps     00:28:29.500    17 320 kbps     00:28:31.416    71 884 bytes    234 873 bytes   00:26:48.125
4               0:30:25.333     0:08:54.208     17 272 kbps     23 920 kbps     00:36:30.416    21 538 kbps     00:34:13.041    21 167 kbps     00:34:07.958    89 956 bytes    245 389 bytes   00:31:09.375
5               0:39:19.541     0:09:56.291     19 399 kbps     27 468 kbps     00:49:05.250    24 635 kbps     00:49:02.916    22 949 kbps     00:39:25.833    101 035 bytes   291 207 bytes   00:43:17.958
6               0:49:15.833     0:12:07.041     20 235 kbps     34 104 kbps     00:58:46.958    31 623 kbps     00:58:44.000    29 203 kbps     00:58:44.000    105 389 bytes   348 602 bytes   00:58:36.708
7               1:01:22.875     0:14:55.333     21 400 kbps     32 456 kbps     01:02:32.833    29 021 kbps     01:02:42.750    28 037 kbps     01:03:22.125    111 459 bytes   314 093 bytes   01:02:32.458
8               1:16:18.208     0:05:17.958     15 557 kbps     20 933 kbps     01:17:23.250    19 092 kbps     01:16:25.166    19 040 kbps     01:16:20.166    81 025 bytes    233 219 bytes   01:21:36.166
9               1:21:36.166     0:03:01.583     18 323 kbps     25 738 kbps     01:21:45.125    23 785 kbps     01:21:44.083    22 806 kbps     01:21:39.125    95 430 bytes    323 068 bytes   01:24:01.708
10              1:24:37.750     0:08:50.333     15 504 kbps     24 635 kbps     01:24:46.541    22 185 kbps     01:31:36.208    21 544 kbps     01:31:36.083    80 751 bytes    248 933 bytes   01:33:09.666
11              1:33:28.083     0:02:55.083     16 675 kbps     20 643 kbps     01:35:35.625    19 646 kbps     01:35:35.000    19 110 kbps     01:35:33.208    86 851 bytes    226 067 bytes   01:33:50.375
12              1:36:23.166     0:02:16.250     12 701 kbps     15 845 kbps     01:36:39.125    14 502 kbps     01:36:38.791    14 243 kbps     01:36:35.125    66 171 bytes    238 331 bytes   01:36:36.166

Скриншоты меню

Скриншоты


[Цитировать]



Показать сообщения:    

Текущее время: 09-Дек 22:17

Часовой пояс: UTC + 3


Вы не можете начинать темы
Вы не можете отвечать на сообщения
Вы не можете редактировать свои сообщения
Вы не можете удалять свои сообщения
Вы не можете голосовать в опросах
Вы не можете прикреплять файлы к сообщениям
Вы не можете скачивать файлы

!ВНИМАНИЕ!
Сайт не предоставляет электронные версии произведений, а занимается лишь коллекционированием и каталогизацией ссылок, присылаемых и публикуемых на форуме нашими читателями. Если вы являетесь правообладателем какого-либо представленного материала и не желаете, чтобы ссылка на него находилась в нашем каталоге, свяжитесь с нами, и мы незамедлительно удалим ее. Файлы для обмена на трекере предоставлены пользователями сайта, и администрация не несет ответственности за их содержание. Просьба не заливать файлы, защищенные авторскими правами, а также файлы нелегального содержания!