[ Сегодня идет свободное скачивание без начисления Download ]


Статистика раздачи
Качаю: [ 1 ]
Скачал: [ 2 ]
 
   
 
Top  
 
 
Три орешка для Золушки / T?i o???ky pro Popelku / Drei Haseln?sse f?r Aschenbr?del
«Вечная сказка завоюет сердце каждого, кто посмотрит её!»
Страна: Чехословакия (Filmove Studio Barrandov) - ГДР (DEFA)
Жанр: Сказка, приключения, семейный
Год выпуска: 1973
Продолжительность: 01:22:55
Перевод:
1) Профессиональный (Советский Дубляж!)
2) Профессиональный (Многоголосый, закадровый) - R5

Оригинальные аудиодорожки: чешская, немецкая
Cубтитры: русские, немецкие, английские
Режиссер: Вацлав Ворличек / V?clav Vorl?cek
В ролях: Либуше Шафранкова, Павел Травничек, Рольф Хоппе, Карола Браунбок, Карин Леш, Дана Главачова, Ян Либичек , Витежслав Яндак , Ярослав Дрбоглав , Владимир Меншик, Гелена Ружичкова
Описание: Мачеха Золушки всеми силами хочет выдать свою глупую и злую родную дочь замуж за Принца. Но тому совсем не хочется жениться, он ссорится с отцом и собирается покинуть дворец, но... в последний момент он влюбляется в очаровательную незнакомку в маске, которая быстро исчезает. Принц и не догадывается, что эта прекрасная девушка, ловкий стрелок, которого он встретил в лесу и озорная девчонка - одно и то же лицо. Все эти превращения оказались возможными благодаря волшебным орешкам, в одном из которых находился и свадебный подарок для Золушки.
Доп. информация: Релиз для любителей "чёрных полос" - 1080i 16:9 (4:3) Pillarbox! Здесь оригинальное соотношение сторон кадра - 4:3, кадр полный, так фильм был снят. Видео и немецкая дорожка с оригинального Blu-ray. Русские дорожки и чешская взяты с этой раздачи, они же и в ремуксе. Присоединяюсь к благодарностям. Английские субтитры взяты отсюда же, исправлены множественные разрывы слов и ошибки. Русские субтитры оттуда же.
Благодарности: Спасибо ilya_l!
Тип релиза: BDRemux 1080i 16:9 (4:3) Pillarbox
Контейнер: MKV
А вот тут семпл: 83МБ, 30сек.
Видео: AVC 1920x1080i , 25fps, 24.2 Мбит/сек
Аудио 1: Русский: AC3 2.0, 48.0 KHz, 384kbps - Профессиональный (Советский Дубляж)
Аудио 2: Русский: AC3 2.0, 48.0 KHz, 192kbps - Профессиональный (Многоголосый, закадровый)
Аудио 3: Чешский: AC3 2.0, 48.0 KHz, 192kbps - Original
Аудио 4: Немецкий: DTS 5.1, 48.0 KHz, 1510kbps - Original
Субтитры: русские (с дубляжа), русские (с многоголоски), немецкие, английские
Формат субтитров: softsub (SRT)

MediaInfo

GeneralComplete name : Drei.Haselnuesse.fuer.Aschenbroedel.1973.BD.OAR.Remux.AVC.1080i.Pillarbox.4xSubs.ssp43.mkvFormat : MatroskaFile size : 15.7 GiBDuration : 1h 22mnOverall bit rate : 27.1 MbpsMovie name : OAREncoded date : UTC 2011-02-19 20:37:22Writing application : mkvmerge v4.4.0 ('Die Wiederkehr')Writing library : libebml v1.2.0 + libmatroska v1.1.0
VideoID : 1Format : AVCFormat/Info : Advanced Video CodecFormat profile : High@L4.1Format settings, CABAC : YesFormat settings, ReFrames : 4 framesMuxing mode : Container profile=Unknown@0.0Codec ID : V_MPEG4/ISO/AVCDuration : 1h 22mnBit rate : 24.2 MbpsWidth : 1 920 pixelsHeight : 1 080 pixelsDisplay aspect ratio : 16:9Frame rate : 25.000 fpsColor space : YUVChroma subsampling : 4:2:0Bit depth : 8 bitsScan type : MBAFFBits/(Pixel*Frame) : 0.468Stream size : 14.0 GiB (90%)Title : Remux-1080i-OARLanguage : GermanColor primaries : BT.709-5, BT.1361, IEC 61966-2-4, SMPTE RP177Transfer characteristics : BT.709-5, BT.1361Matrix coefficients : BT.709-5, BT.1361, IEC 61966-2-4 709, SMPTE RP177
Audio #1ID : 2Format : AC-3Format/Info : Audio Coding 3Mode extension : CM (complete main)Codec ID : A_AC3Duration : 1h 22mnBit rate mode : ConstantBit rate : 384 KbpsChannel(s) : 2 channelsChannel positions : Front: L RSampling rate : 48.0 KHzBit depth : 16 bitsStream size : 228 MiB (1%)Title : Dub AC3 - 2.0 384KbpsLanguage : Russian
Audio #2ID : 3Format : AC-3Format/Info : Audio Coding 3Mode extension : CM (complete main)Codec ID : A_AC3Duration : 1h 22mnBit rate mode : ConstantBit rate : 192 KbpsChannel(s) : 2 channelsChannel positions : Front: L RSampling rate : 48.0 KHzBit depth : 16 bitsStream size : 114 MiB (1%)Title : MVO AC3 - 2.0 192KbpsLanguage : Russian
Audio #3ID : 4Format : AC-3Format/Info : Audio Coding 3Mode extension : CM (complete main)Codec ID : A_AC3Duration : 1h 22mnBit rate mode : ConstantBit rate : 192 KbpsChannel(s) : 2 channelsChannel positions : Front: L RSampling rate : 48.0 KHzBit depth : 16 bitsStream size : 114 MiB (1%)Title : AC3 - 2.0 192KbpsLanguage : Czech
Audio #4ID : 5Format : DTSFormat/Info : Digital Theater SystemsCodec ID : A_DTSDuration : 1h 22mnBit rate mode : ConstantBit rate : 1 510 KbpsChannel(s) : 6 channelsChannel positions : Front: L C R, Side: L R, LFESampling rate : 48.0 KHzBit depth : 24 bitsStream size : 895 MiB (6%)Title : DTS - 5.1 1510KbpsLanguage : German
Text #1ID : 6Format : UTF-8Codec ID : S_TEXT/UTF8Codec ID/Info : UTF-8 Plain TextTitle : DUBLanguage : Russian
Text #2ID : 7Format : UTF-8Codec ID : S_TEXT/UTF8Codec ID/Info : UTF-8 Plain TextTitle : MVOLanguage : Russian
Text #3ID : 8Format : UTF-8Codec ID : S_TEXT/UTF8Codec ID/Info : UTF-8 Plain TextLanguage : German
Text #4ID : 9Format : UTF-8Codec ID : S_TEXT/UTF8Codec ID/Info : UTF-8 Plain Text
Menu00:00:00.000 : en:00:00:00.00000:04:21.520 : en:00:04:21.52000:14:37.680 : en:00:14:37.68000:25:16.760 : en:00:25:16.76000:35:27.600 : en:00:35:27.60000:45:40.520 : en:00:45:40.52000:54:49.800 : en:00:54:49.80001:06:12.080 : en:01:06:12.08001:17:44.080 : en:01:17:44.08001:22:10.000 : en:01:22:10.000

Скриншоты


[Цитировать]



Показать сообщения:    

Текущее время: 09-Дек 18:29

Часовой пояс: UTC + 3


Вы не можете начинать темы
Вы не можете отвечать на сообщения
Вы не можете редактировать свои сообщения
Вы не можете удалять свои сообщения
Вы не можете голосовать в опросах
Вы не можете прикреплять файлы к сообщениям
Вы не можете скачивать файлы

!ВНИМАНИЕ!
Сайт не предоставляет электронные версии произведений, а занимается лишь коллекционированием и каталогизацией ссылок, присылаемых и публикуемых на форуме нашими читателями. Если вы являетесь правообладателем какого-либо представленного материала и не желаете, чтобы ссылка на него находилась в нашем каталоге, свяжитесь с нами, и мы незамедлительно удалим ее. Файлы для обмена на трекере предоставлены пользователями сайта, и администрация не несет ответственности за их содержание. Просьба не заливать файлы, защищенные авторскими правами, а также файлы нелегального содержания!