[ Сегодня идет свободное скачивание без начисления Download ]


Статистика раздачи
Нет
 
   
 
Top  
 
 
-Темная звезда / Dark Star-Страна: США
Жанр: Фантастика
Год выпуска: 1974
Продолжительность: 01:22:58-Перевод: Профессиональный (двухголосый закадровый)
Перевод: Одноголосый (закадровый) - Сергей Визгунов + Неизвестный
Cубтитры: английские
Оригинальная аудиодорожка: английский-Режиссер: Джон Карпентер / John Carpenter
В ролях: Брайан Нэрелл (Brian Narelle), Дэн О`Бэннон (Dan O'Bannon), Кэл Кунихолм (Cal Kuniholm), Дре Пахич (Dre Pahich)-Описание: Первый полнометражный фильм знаменитого Джона Карпентера, являющийся к тому же и его дипломной работой. История трагикомичных злоключений четырех пилотов космического корабля под названием «Тёмная звезда», миссия которых заключалась в уничтожении нестабильных планет в звёздных системах, подлежащих колонизации.-Доп. информация: За чистый голос Визгунова спасибо sergey_n!-[kp]31729[/kp]-Тип релиза: BDRemux [thx HDBits] - Сэмпл
Контейнер: MKV
Видео: MPEG-4 AVC Video 35979 kbps 1080p / 24 fps / 16:9 / High Profile 4.1
Аудио: Dolby Digital Audio Russian 2.0 / 48 kHz / 192 kbps - DVO
Аудио: Dolby Digital Audio Russian 2.0 / 48 kHz / 192 kbps - VO
Аудио: DTS-HD High-Res Audio Russian 5.1 / 48 kHz / 2046 kbps / 16-bit (DTS Core: 5.1 / 48 kHz / 1509 kbps / 16-bit) - Сергей Визгунов
Аудио: DTS-HD High-Res Audio English 5.1 / 48 kHz / 2046 kbps / 16-bit (DTS Core: 5.1 / 48 kHz / 1509 kbps / 16-bit)

MI

General
Complete name                    : Z:\Фильмы\Темная звезда (1974. Dark Star).mkv
Format                           : Matroska
File size                        : 23.4 GiB
Duration                         : 1h 22mn
Overall bit rate                 : 40.4 Mbps
Movie name                       : http://rutracker.org/forum/viewtopic.php?t=3960830
Encoded date                     : UTC 2012-02-27 01:10:25
Writing application              : mkvmerge v4.9.1 ('Ich will') сборка от Jul 11 2011 23:53:15
Writing library                  : libebml v1.2.1 + libmatroska v1.1.1
Video
ID                               : 1
Format                           : AVC
Format/Info                      : Advanced Video Codec
Format profile                   : High@L4.1
Format settings, CABAC           : Yes
Format settings, ReFrames        : 4 frames
Format settings, GOP             : M=1, N=24
Muxing mode                      : Container profile=Unknown@4.1
Codec ID                         : V_MPEG4/ISO/AVC
Duration                         : 1h 22mn
Bit rate mode                    : Variable
Bit rate                         : 35.1 Mbps
Maximum bit rate                 : 38.0 Mbps
Width                            : 1 920 pixels
Height                           : 1 080 pixels
Display aspect ratio             : 16:9
Frame rate                       : 24.000 fps
Color space                      : YUV
Chroma subsampling               : 4:2:0
Bit depth                        : 8 bits
Scan type                        : Progressive
Bits/(Pixel*Frame)               : 0.705
Stream size                      : 20.3 GiB (87%)
Title                            : Dark.Star.1974.1080p.GBR.Blu-ray.AVC.DTS-HD 5.1
Language                         : English
Audio #1
ID                               : 2
Format                           : AC-3
Format/Info                      : Audio Coding 3
Mode extension                   : CM (complete main)
Codec ID                         : A_AC3
Duration                         : 1h 22mn
Bit rate mode                    : Constant
Bit rate                         : 192 Kbps
Channel(s)                       : 2 channels
Channel positions                : Front: L R
Sampling rate                    : 48.0 KHz
Bit depth                        : 16 bits
Stream size                      : 114 MiB (0%)
Title                            : DVO
Language                         : Russian
Audio #2
ID                               : 3
Format                           : AC-3
Format/Info                      : Audio Coding 3
Mode extension                   : CM (complete main)
Codec ID                         : A_AC3
Duration                         : 1h 22mn
Bit rate mode                    : Constant
Bit rate                         : 192 Kbps
Channel(s)                       : 2 channels
Channel positions                : Front: L R
Sampling rate                    : 48.0 KHz
Bit depth                        : 16 bits
Stream size                      : 114 MiB (0%)
Title                            : VO
Language                         : Russian
Audio #3
ID                               : 4
Format                           : DTS
Format/Info                      : Digital Theater Systems
Format profile                   : HRA
Codec ID                         : A_DTS
Duration                         : 1h 22mn
Bit rate mode                    : Constant
Bit rate                         : 2 047 Kbps
Channel(s)                       : 6 channels
Channel positions                : Front: L C R, Side: L R, LFE
Sampling rate                    : 48.0 KHz
Bit depth                        : 16 bits
Stream size                      : 1.19 GiB (5%)
Title                            : AVO [Сергей Визгунов]
Language                         : Russian
Audio #4
ID                               : 5
Format                           : DTS
Format/Info                      : Digital Theater Systems
Format profile                   : HRA
Codec ID                         : A_DTS
Duration                         : 1h 22mn
Bit rate mode                    : Constant
Bit rate                         : 2 047 Kbps
Channel(s)                       : 6 channels
Channel positions                : Front: L C R, Side: L R, LFE
Sampling rate                    : 48.0 KHz
Bit depth                        : 16 bits
Stream size                      : 1.19 GiB (5%)
Language                         : English
Text #1
ID                               : 6
Format                           : UTF-8
Codec ID                         : S_TEXT/UTF8
Codec ID/Info                    : UTF-8 Plain Text
Language                         : English
Text #2
ID                               : 7
Format                           : PGS
Codec ID                         : S_HDMV/PGS
Codec ID/Info                    : The same subtitle format used on BDs/HD-DVDs
Language                         : English
Menu
00:00:00.000                     : en:Chapter 01
00:02:28.166                     : en:Chapter 02
00:10:02.083                     : en:Chapter 03
00:12:26.291                     : en:Chapter 04
00:13:39.458                     : en:Chapter 05
00:23:20.750                     : en:Chapter 06
00:26:44.708                     : en:Chapter 07
00:28:44.875                     : en:Chapter 08
00:31:58.208                     : en:Chapter 09
00:49:08.416                     : en:Chapter 10
00:52:29.583                     : en:Chapter 11
00:54:25.083                     : en:Chapter 12
00:57:59.166                     : en:Chapter 13
01:00:39.875                     : en:Chapter 14
01:04:16.708                     : en:Chapter 15
01:07:02.000                     : en:Chapter 16
01:11:27.291                     : en:Chapter 17
01:17:03.000                     : en:Chapter 18

Скриншоты

-

[Цитировать]



Показать сообщения:    

Текущее время: 09-Дек 22:20

Часовой пояс: UTC + 3


Вы не можете начинать темы
Вы не можете отвечать на сообщения
Вы не можете редактировать свои сообщения
Вы не можете удалять свои сообщения
Вы не можете голосовать в опросах
Вы не можете прикреплять файлы к сообщениям
Вы не можете скачивать файлы

!ВНИМАНИЕ!
Сайт не предоставляет электронные версии произведений, а занимается лишь коллекционированием и каталогизацией ссылок, присылаемых и публикуемых на форуме нашими читателями. Если вы являетесь правообладателем какого-либо представленного материала и не желаете, чтобы ссылка на него находилась в нашем каталоге, свяжитесь с нами, и мы незамедлительно удалим ее. Файлы для обмена на трекере предоставлены пользователями сайта, и администрация не несет ответственности за их содержание. Просьба не заливать файлы, защищенные авторскими правами, а также файлы нелегального содержания!