[ Сегодня идет свободное скачивание без начисления Download ]


Статистика раздачи
Нет
 
   
 
Top  
 
 
Соломон и царица Савская / Соломон и Шеба / Solomon and Sheba
Информация о фильме
Название: Соломон и царица Савская
Оригинальное название: Solomon and Sheba
Год выхода: 1959
Жанр: Драма, исторический
Режисcер: Кинг Видор / King Vidor
В ролях: Юл Бриннер / Yul Brynner, Джина Лоллобриджида / Gina Lollobrigida, Джордж Сандерс / George Sanders, Мариса Паван / Marisa Pavan, Дэвид Фаррар / David Farrar, Джон Кроуфорд / John Crawford, Финлэй Карри / Finlay Currie
О фильме:
Этот библейский эпос, поставленный режиссером Кингом Вайдером является кинематографическим осмыслением плотских грехов и языческих богопреклонений. Картина, снятая в Испании, запечатлела подвиги незабвенных персонажей. Юл Бриннер олицетворяет здесь сильного и идеалистического Соломона. А чувственная Джина Лоллобриджида — великолепна в роли величественной и соблазнительной Царицы.

Выпущено: США - |Edward Small Productions|
Продолжительность: 02:15:41
Файл
Качество: 720p HDTVRip
Контейнер: MKV
Видео: x.264, PAL 25.00, 1280 x 544, 5 459 кбит/с
Звук #1: Русский (Профессиональный (многоголосый)), AC3, 5ch (L,C,R, Ls, Rs), 384 кбит/с 48 kHz |SomeWax|
Звук #2: Русский (Профессиональный (два голоса)), AC3, 2ch (L,R), 192 кбит/с 48 kHz |5-й канал СПБ|
Звук #3: Английский (Оригинал), AC3, 2ch (L,R), 384 кбит/с 48 kHz
Субтитры: Русский, Английский

MediaInfo

General
Unique ID : 175104813590044399817165912367473788310 (0x83BBF5DC1D7CA6D39C73694E1CA28596)
Complete name : D:\Film\Solomon.and.Sheba.1959.HDTVRip.720p.x264.AC3.Eng.Rus.mkv
Format : Matroska
File size : 6.02 GiB
Duration : 2h 15mn
Overall bit rate : 6 354 Kbps
Movie name : HDv0T
Encoded date : UTC 2011-08-22 10:18:12
Writing application : mkvmerge v4.9.1 ('Ich will') built on Jul 11 2011 23:53:15
Writing library : libebml v1.2.1 + libmatroska v1.1.1
Video
ID : 1
Format : AVC
Format/Info : Advanced Video Codec
Format profile : High@L3.1
Format settings, CABAC : Yes
Format settings, ReFrames : 4 frames
Codec ID : V_MPEG4/ISO/AVC
Duration : 2h 15mn
Bit rate : 5 459 Kbps
Width : 1 280 pixels
Height : 544 pixels
Display aspect ratio : 2.35:1
Frame rate mode : Variable
Frame rate : 25.000 fps
Color space : YUV
Chroma subsampling : 4:2:0
Bit depth : 8 bits
Scan type : Progressive
Bits/(Pixel*Frame) : 0.314
Stream size : 5.17 GiB (86%)
Writing library : x264 core 112
Encoding settings : cabac=1 / ref=4 / deblock=1:0:0 / analyse=0x3:0x113 / me=hex / subme=7 / psy=1 / psy_rd=1.00:0.00 / mixed_ref=1 / me_range=16 / chroma_me=1 / trellis=1 / 8x8dct=1 / cqm=0 / deadzone=21,11 / fast_pskip=1 / chroma_qp_offset=-2 / threads=3 / sliced_threads=0 / nr=0 / decimate=1 / interlaced=0 / constrained_intra=0 / bframes=3 / b_pyramid=2 / b_adapt=1 / b_bias=0 / direct=1 / weightb=1 / open_gop=0 / weightp=2 / keyint=250 / keyint_min=25 / scenecut=40 / intra_refresh=0 / rc_lookahead=40 / rc=crf / mbtree=1 / crf=17.8 / qcomp=0.60 / qpmin=3 / qpmax=51 / qpstep=4 / ip_ratio=1.40 / aq=1:1.00
Language : English
Color primaries : BT.709-5, BT.1361, IEC 61966-2-4, SMPTE RP177
Transfer characteristics : BT.709-5, BT.1361
Matrix coefficients : BT.709-5, BT.1361, IEC 61966-2-4 709, SMPTE RP177
Audio #1
ID : 2
Format : AC-3
Format/Info : Audio Coding 3
Mode extension : CM (complete main)
Codec ID : A_AC3
Duration : 2h 15mn
Bit rate mode : Constant
Bit rate : 384 Kbps
Channel(s) : 5 channels
Channel positions : Front: L C R, Side: L R
Sampling rate : 48.0 KHz
Bit depth : 16 bits
Compression mode : Lossy
Stream size : 373 MiB (6%)
Title : AC3 5.0 384 kbps |профессиональный (многоголосый, закадровый) - SomeWax|
Language : Russian
Audio #2
ID : 3
Format : AC-3
Format/Info : Audio Coding 3
Mode extension : CM (complete main)
Codec ID : A_AC3
Duration : 2h 15mn
Bit rate mode : Constant
Bit rate : 192 Kbps
Channel(s) : 2 channels
Channel positions : Front: L R
Sampling rate : 48.0 KHz
Bit depth : 16 bits
Compression mode : Lossy
Stream size : 186 MiB (3%)
Title : AC3 2.0 192 kbps |профессиональный (двухголосный, закадровый)|
Language : Russian
Audio #3
ID : 4
Format : AC-3
Format/Info : Audio Coding 3
Mode extension : CM (complete main)
Codec ID : A_AC3
Duration : 2h 15mn
Bit rate mode : Constant
Bit rate : 192 Kbps
Channel(s) : 2 channels
Channel positions : Front: L R
Sampling rate : 48.0 KHz
Bit depth : 16 bits
Compression mode : Lossy
Stream size : 186 MiB (3%)
Title : AC3 2.0 384 kbps
Language : English
Text #1
ID : 5
Format : UTF-8
Codec ID : S_TEXT/UTF8
Codec ID/Info : UTF-8 Plain Text
Language : Russian
Text #2
ID : 6
Format : UTF-8
Codec ID : S_TEXT/UTF8
Codec ID/Info : UTF-8 Plain Text
Language : English





[Цитировать]



Показать сообщения:    

Текущее время: 11-Дек 12:55

Часовой пояс: UTC + 3


Вы не можете начинать темы
Вы не можете отвечать на сообщения
Вы не можете редактировать свои сообщения
Вы не можете удалять свои сообщения
Вы не можете голосовать в опросах
Вы не можете прикреплять файлы к сообщениям
Вы не можете скачивать файлы

!ВНИМАНИЕ!
Сайт не предоставляет электронные версии произведений, а занимается лишь коллекционированием и каталогизацией ссылок, присылаемых и публикуемых на форуме нашими читателями. Если вы являетесь правообладателем какого-либо представленного материала и не желаете, чтобы ссылка на него находилась в нашем каталоге, свяжитесь с нами, и мы незамедлительно удалим ее. Файлы для обмена на трекере предоставлены пользователями сайта, и администрация не несет ответственности за их содержание. Просьба не заливать файлы, защищенные авторскими правами, а также файлы нелегального содержания!