[ Сегодня идет свободное скачивание без начисления Download ]


Статистика раздачи
Нет
 
   
 
Top  
 
 
Гостья / The Host
«You will be one of us.»
Страна: США
Производство: Nick Wechsler Productions, Chockstone Pictures
Жанр: фантастика, драма, мелодрама
Год выпуска: 2013
Продолжительность: 02:05:38 час.
Перевод: Профессиональный (полное дублирование)
Субтитры: русские (full), английские (full SDH)
Формат субтитров: softsub (SRT)
Оригинальная аудиодорожка: английский
Режиссер: Эндрю Никкол / Andrew Niccol
В ролях: Сирша Ронан, Макс Айронс, Джейк Эйбел, Дайан Крюгер, Уильям Хёрт, Чандлер Кентербери, Фрэнсис Фишер, Скотт Лоуренс, Бойд Холбрук, Мустафа Харрис
Описание: Земля — в опасности! Наше место скоро займут Души — лишенные плотской оболочки пришельцы, вытесняющие из человеческих тел разум и замещающие его разумом собственным. Большая часть человечества уже погибла. Немногие выжившие скрываются в жалкой попытке отсрочить неизбежное… Теперь Душа пытается захватить тело юной Мелани. Однако происходит неожиданное: Мелани и ее Душа вынуждены сосуществовать в одном теле. Гостье надлежало выследить и выдать землян-повстанцев, с которыми связана Мелани, но она помогает своей носительнице.

Автор рипа:
Качество: BDRip-AVC | исх. The Host 2013 1080p BluRay AVC DTS HD MA 5 1 PublicHD
Формат: MKV
Видео кодек: H.264
Аудио кодек: AC3
Видео: 1152x480 (2,40:1), 23,976 fps, H.264 ~2 139 kbps avg, 0.159 bit/pixel
Аудио 1: 48 kHz, AC3, 3/2 (L,C,R,l,r) + LFE ch, ~448.00 kbps avg | Профессиональный (полное дублирование)
Аудио 2: 48 kHz, AC3, 3/2 (L,C,R,l,r) + LFE ch, ~448.00 kbps avg | Оригинал (английский)
Премьера (мир) - 22 марта 2013
Премьера (РФ) - 28 марта 2013, «West»

MediaInfo | Log x264

Log x264

avs [info]: 1152x480p 1:1 @ 2500000/104271 fps (cfr)
x264 [info]: using SAR=1/1
x264 [info]: using cpu capabilities: MMX2 SSE2Fast SSSE3 FastShuffle SSE4.2 AVX
x264 [info]: profile High, level 4.1
x264 [info]: frame I:1387 Avg QP:13.40 size: 89432
x264 [info]: frame P:31996 Avg QP:15.09 size: 27430
x264 [info]: frame B:147360 Avg QP:18.09 size: 6882
x264 [info]: consecutive B-frames: 1.5% 1.0% 4.4% 10.1% 13.2% 40.2% 7.4% 3.4% 2.8% 1.5% 5.5% 3.9% 2.4% 1.5% 0.8% 0.4%
x264 [info]: mb I I16..4: 11.5% 71.0% 17.6%
x264 [info]: mb P I16..4: 0.5% 7.6% 0.9% P16..4: 28.5% 36.5% 14.3% 5.5% 0.6% skip: 5.5%
x264 [info]: mb B I16..4: 0.0% 0.5% 0.1% B16..8: 31.9% 20.2% 3.4% direct: 4.2% skip:39.6% L0:45.1% L1:44.2% BI:10.6%
x264 [info]: 8x8 transform intra:80.6% inter:49.7%
x264 [info]: coded y,uvDC,uvAC intra: 93.8% 93.1% 85.2% inter: 16.5% 14.5% 5.0%
x264 [info]: i16 v,h,dc,p: 14% 8% 22% 56%
x264 [info]: i8 v,h,dc,ddl,ddr,vr,hd,vl,hu: 9% 10% 9% 9% 12% 12% 13% 11% 14%
x264 [info]: i4 v,h,dc,ddl,ddr,vr,hd,vl,hu: 8% 9% 5% 9% 16% 14% 14% 11% 13%
x264 [info]: i8c dc,h,v,p: 52% 20% 14% 15%
x264 [info]: Weighted P-Frames: Y:4.1% UV:2.5%
x264 [info]: ref P L0: 45.9% 7.8% 19.5% 6.7% 6.0% 3.9% 3.7% 1.7% 1.8% 1.3% 1.4% 0.2% 0.0%
x264 [info]: ref B L0: 65.8% 14.5% 7.2% 3.8% 2.7% 2.3% 1.7% 1.1% 0.6% 0.2%
x264 [info]: ref B L1: 90.2% 9.8%
x264 [info]: kb/s:2139.28
encoded 180743 frames, 2.73 fps, 2139.28 kb/s
Общее
Уникальный идентификатор : 201322442329600841894321516922358415287 (0x97754AC18F16CFF28DDC7028E54B3FB7)
Полное имя : D:\\[email protected]_^--\\films\\My Rips\\The.Host.2013.BDRip-AVC.DUB.ENG.SUBs.by.zOJIOtOi.mkv
Формат : Matroska
Версия формата : Version 2
Размер файла : 2,67 Гбайт
Продолжительность : 2 ч. 5 м.
Общий поток : 3037 Кбит/сек
Дата кодирования : UTC 2013-07-30 14:10:16
Программа кодирования : mkvmerge v4.9.1 (\'Ich will\') built on Sep 21 2011 17:48:11
Библиотека кодирования : libebml v1.2.1 + libmatroska v1.2.0
Видео
Идентификатор : 1
Формат : AVC
Формат/Информация : Advanced Video Codec
Профиль формата : [email protected]
Параметр CABAC формата : Да
Параметр ReFrames формата : 11 кадров
Идентификатор кодека : V_MPEG4/ISO/AVC
Продолжительность : 2 ч. 5 м.
Битрейт : 2139 Кбит/сек
Ширина : 1152 пикселя
Высота : 480 пикселей
Соотношение сторон : 2,40:1
Режим частоты кадров : Постоянный
Частота кадров : 23,976 кадра/сек
Цветовое пространство : YUV
Субдискретизация насыщенности : 4:2:0
Битовая глубина : 8 бит
Тип развёртки : Прогрессивная
Бит/(Пиксели*Кадры) : 0.159
Размер потока : 1,83 Гбайт (69%)
Заголовок : The.Host.2013.BDRip-AVC.by.zOJIOtOi
Библиотека кодирования : x264 core 118 r2085 8a62835
Настройки программы : cabac=1 / ref=11 / deblock=1:-3:-3 / analyse=0x3:0x133 / me=umh / subme=11 / psy=1 / psy_rd=1.00:0.05 / mixed_ref=1 / me_range=48 / chroma_me=1 / trellis=2 / 8x8dct=1 / cqm=0 / deadzone=21,11 / fast_pskip=0 / chroma_qp_offset=-3 / threads=6 / sliced_threads=0 / nr=0 / decimate=1 / interlaced=0 / bluray_compat=0 / constrained_intra=0 / bframes=15 / b_pyramid=2 / b_adapt=2 / b_bias=0 / direct=1 / weightb=1 / open_gop=0 / weightp=2 / keyint=250 / keyint_min=23 / scenecut=40 / intra_refresh=0 / rc_lookahead=60 / rc=crf / mbtree=0 / crf=17.0 / qcomp=0.65 / qpmin=0 / qpmax=69 / qpstep=4 / vbv_maxrate=50000 / vbv_bufsize=62500 / crf_max=0.0 / nal_hrd=none / ip_ratio=1.40 / pb_ratio=1.30 / aq=2:1.00
Язык : English
Default : Да
Forced : Нет
Аудио #1
Идентификатор : 2
Формат : AC-3
Формат/Информация : Audio Coding 3
Расширение режима : CM (complete main)
Параметр Endianness формата : Big
Идентификатор кодека : A_AC3
Продолжительность : 2 ч. 5 м.
Вид битрейта : Постоянный
Битрейт : 448 Кбит/сек
Каналы : 6 каналов
Расположение каналов : Front: L C R, Side: L R, LFE
Частота : 48,0 КГц
Битовая глубина : 16 бит
Метод сжатия : С потерями
Размер потока : 403 Мбайт (15%)
Заголовок : Дублированный
Язык : Russian
Default : Да
Forced : Нет
Аудио #2
Идентификатор : 3
Формат : AC-3
Формат/Информация : Audio Coding 3
Расширение режима : CM (complete main)
Параметр Endianness формата : Big
Идентификатор кодека : A_AC3
Продолжительность : 2 ч. 5 м.
Вид битрейта : Постоянный
Битрейт : 448 Кбит/сек
Каналы : 6 каналов
Расположение каналов : Front: L C R, Side: L R, LFE
Частота : 48,0 КГц
Битовая глубина : 16 бит
Метод сжатия : С потерями
Размер потока : 403 Мбайт (15%)
Заголовок : Оригинал
Язык : English
Default : Нет
Forced : Нет
Текст #1
Идентификатор : 4
Формат : UTF-8
Идентификатор кодека : S_TEXT/UTF8
Идентификатор кодека/Информация : UTF-8 Plain Text
Заголовок : Русские (Full)
Язык : Russian
Default : Да
Forced : Нет
Текст #2
Идентификатор : 5
Формат : UTF-8
Идентификатор кодека : S_TEXT/UTF8
Идентификатор кодека/Информация : UTF-8 Plain Text
Заголовок : Английские (Full,SDH)
Язык : English
Default : Нет
Forced : Нет

Скриншоты

[Цитировать]



Показать сообщения:    

Текущее время: 04-Дек 15:18

Часовой пояс: UTC + 3


Вы не можете начинать темы
Вы не можете отвечать на сообщения
Вы не можете редактировать свои сообщения
Вы не можете удалять свои сообщения
Вы не можете голосовать в опросах
Вы не можете прикреплять файлы к сообщениям
Вы не можете скачивать файлы

!ВНИМАНИЕ!
Сайт не предоставляет электронные версии произведений, а занимается лишь коллекционированием и каталогизацией ссылок, присылаемых и публикуемых на форуме нашими читателями. Если вы являетесь правообладателем какого-либо представленного материала и не желаете, чтобы ссылка на него находилась в нашем каталоге, свяжитесь с нами, и мы незамедлительно удалим ее. Файлы для обмена на трекере предоставлены пользователями сайта, и администрация не несет ответственности за их содержание. Просьба не заливать файлы, защищенные авторскими правами, а также файлы нелегального содержания!