[ Сегодня идет свободное скачивание без начисления Download ]


Статистика раздачи
Нет
 
   
 
Top  
 
 
Год выпуска: 2013
Производство: Бельгия, США / Corsan, Millennium Films
Жанр: Ужасы, фэнтези, боевик, триллер, вестерн
Продолжительность: 01:32:24
Перевод: Любительский (одноголосый закадровый) den904
Субтитры: Английские-Режиссер: Марк Стивен Джонсон / Mark Steven Johnson
В ролях: Джон Траволта, Роберт Де Ниро, Майло Вентимилья, Элизабет Олин
О фильме: История о ветеранах войны в Боснии — американце и сербе, которые, спустя много лет после событий в Европе, устраивают свою личную Третью мировую войну, пытаясь свести счеты.
- -Качество: BDRip-AVC [Killing.Season.2013.1080p.BluRay.AVC.TrueHD.5.1-PublicHD]
Формат: MKV
Видео кодек: х.264
Аудио кодек: AC3
Видео: х.264, 1024x576 (16:9), 23,976 fps, 1401 Кbps, 0.099 bit/pixel
Аудио#1: 48 kHz, AC3 Dolby Digital, 3/2 (L,C,R,l,r) + LFE ch, 384.00 kbps | RUS
Аудио#2: 48 kHz, AC3 Dolby Digital, 3/2 (L,C,R,l,r) + LFE ch, 448.00 kbps | ENG
--

MI

Общее
Уникальный идентификатор : 180257912330152953347060883597922265020 (0x879C693E4DE1E1509D9EA2D598F9E7BC)
Полное имя : Sezon.Ubijc.2013.DUAL.BDRip.x.264.-HELLYWOOD.mkv
Формат : Matroska
Версия формата : Version 4 / Version 2
Размер файла : 1,42 Гбайт
Продолжительность : 1 ч. 30 м.
Общий поток : 2235 Кбит/сек
Название фильма : HELLYWOOD
Дата кодирования : UTC 2013-08-02 17:32:06
Программа кодирования : mkvmerge v5.9.0 ('On The Loose') built on Dec 15 2012 16:39:58
Библиотека кодирования : libebml v1.3.0 + libmatroska v1.4.0
Видео
Идентификатор : 1
Формат : AVC
Формат/Информация : Advanced Video Codec
Профиль формата : High@L4.1
Параметр CABAC формата : Да
Параметр ReFrames формата : 13 кадров
Идентификатор кодека : V_MPEG4/ISO/AVC
Продолжительность : 1 ч. 30 м.
Битрейт : 1401 Кбит/сек
Ширина : 1024 пикселя
Высота : 576 пикселей
Соотношение сторон : 16:9
Режим частоты кадров : Постоянный
Частота кадров : 23,976 кадра/сек
Цветовое пространство : YUV
Субдискретизация насыщенности : 4:2:0
Битовая глубина : 8 бит
Тип развёртки : Прогрессивная
Бит/(Пиксели*Кадры) : 0.099
Размер потока : 882 Мбайт (61%)
Заголовок : Killing Season
Библиотека кодирования : x264 core 130 r2273 b3065e6
Настройки программы : cabac=1 / ref=13 / deblock=1:-2:-2 / analyse=0x3:0x133 / me=umh / subme=11 / psy=1 / psy_rd=1.02:0.00 / mixed_ref=1 / me_range=48 / chroma_me=1 / trellis=2 / 8x8dct=1 / cqm=0 / deadzone=21,11 / fast_pskip=0 / chroma_qp_offset=-2 / threads=9 / lookahead_threads=2 / sliced_threads=0 / nr=0 / decimate=1 / interlaced=0 / bluray_compat=0 / constrained_intra=0 / bframes=14 / b_pyramid=2 / b_adapt=2 / b_bias=0 / direct=3 / weightb=1 / open_gop=0 / weightp=2 / keyint=240 / keyint_min=23 / scenecut=40 / intra_refresh=0 / rc_lookahead=60 / rc=2pass / mbtree=0 / bitrate=1401 / ratetol=1.0 / qcomp=0.70 / qpmin=0 / qpmax=69 / qpstep=4 / cplxblur=20.0 / qblur=0.5 / vbv_maxrate=20000 / vbv_bufsize=25000 / nal_hrd=none / ip_ratio=1.35 / pb_ratio=1.40 / aq=2:0.80
Язык : English
Default : Да
Forced : Нет
Аудио #1
Идентификатор : 2
Формат : AC-3
Формат/Информация : Audio Coding 3
Расширение режима : CM (complete main)
Параметр Endianness формата : Big
Идентификатор кодека : A_AC3
Продолжительность : 1 ч. 30 м.
Вид битрейта : Постоянный
Битрейт : 384 Кбит/сек
Каналы : 6 каналов
Расположение каналов : Front: L C R, Side: L R, LFE
Частота : 48,0 КГц
Битовая глубина : 16 бит
Метод сжатия : С потерями
Размер потока : 249 Мбайт (17%)
Заголовок : VO | DD 5.1 @ 384 kbps - den904
Язык : Russian
Default : Да
Forced : Да
Аудио #2
Идентификатор : 3
Формат : AC-3
Формат/Информация : Audio Coding 3
Расширение режима : CM (complete main)
Параметр Endianness формата : Big
Идентификатор кодека : A_AC3
Продолжительность : 1 ч. 30 м.
Вид битрейта : Постоянный
Битрейт : 448 Кбит/сек
Каналы : 6 каналов
Расположение каналов : Front: L C R, Side: L R, LFE
Частота : 48,0 КГц
Битовая глубина : 16 бит
Метод сжатия : С потерями
Размер потока : 291 Мбайт (20%)
Заголовок : Original | DD 5.1 @ 448 kbps
Язык : English
Default : Нет
Forced : Нет
Текст
Идентификатор : 4
Формат : UTF-8
Идентификатор кодека : S_TEXT/UTF8
Идентификатор кодека/Информация : UTF-8 Plain Text
Язык : English
Default : Нет
Forced : Нет

log@x.264

x264 [info]: frame I:1011 Avg QP:15.29 size: 56985
x264 [info]: frame P:31472 Avg QP:18.53 size: 16354
x264 [info]: frame B:98051 Avg QP:20.75 size: 3886
x264 [info]: consecutive B-frames: 4.2% 5.2% 7.7% 27.4% 13.3% 20.0% 5.9% 10.2% 1.2% 0.7% 0.5% 2.6% 0.3% 0.1% 0.3%
x264 [info]: mb I I16..4: 11.0% 73.3% 15.7%
x264 [info]: mb P I16..4: 1.6% 7.8% 0.8% P16..4: 34.0% 34.4% 9.3% 1.2% 0.1% skip:10.8%
x264 [info]: mb B I16..4: 0.1% 0.6% 0.1% B16..8: 32.9% 12.4% 1.4% direct: 2.2% skip:50.3% L0:41.6% L1:50.7% BI: 7.6%
x264 [info]: 8x8 transform intra:76.1% inter:68.5%
x264 [info]: direct mvs spatial:98.0% temporal:2.0%
x264 [info]: coded y,uvDC,uvAC intra: 74.6% 68.7% 38.9% inter: 11.9% 9.0% 1.2%
x264 [info]: i16 v,h,dc,p: 22% 13% 9% 56%
x264 [info]: i8 v,h,dc,ddl,ddr,vr,hd,vl,hu: 6% 6% 4% 10% 15% 14% 15% 13% 15%
x264 [info]: i4 v,h,dc,ddl,ddr,vr,hd,vl,hu: 7% 6% 5% 10% 17% 14% 15% 11% 14%
x264 [info]: i8c dc,h,v,p: 34% 30% 17% 18%
x264 [info]: Weighted P-Frames: Y:7.3% UV:3.3%
x264 [info]: ref P L0: 54.6% 9.2% 14.3% 5.5% 3.9% 3.2% 2.5% 1.5% 1.2% 1.1% 0.9% 0.9% 0.9% 0.2% 0.0%
x264 [info]: ref B L0: 80.9% 8.8% 4.1% 1.7% 1.3% 0.9% 0.8% 0.4% 0.4% 0.3% 0.2% 0.1%
x264 [info]: ref B L1: 93.5% 6.5%
x264 [info]: kb/s:1400.82
x264 [total]: encoded 130534 frames, 6.54 fps, 1400.82 kb/s
TIME
------------------------------
Общее время кодирования: 7 hour 8 min 6 sec
Файл получился на: 910.08 mb

Скриншоты

[Цитировать]



Показать сообщения:    

Текущее время: 10-Дек 15:51

Часовой пояс: UTC + 3


Вы не можете начинать темы
Вы не можете отвечать на сообщения
Вы не можете редактировать свои сообщения
Вы не можете удалять свои сообщения
Вы не можете голосовать в опросах
Вы не можете прикреплять файлы к сообщениям
Вы не можете скачивать файлы

!ВНИМАНИЕ!
Сайт не предоставляет электронные версии произведений, а занимается лишь коллекционированием и каталогизацией ссылок, присылаемых и публикуемых на форуме нашими читателями. Если вы являетесь правообладателем какого-либо представленного материала и не желаете, чтобы ссылка на него находилась в нашем каталоге, свяжитесь с нами, и мы незамедлительно удалим ее. Файлы для обмена на трекере предоставлены пользователями сайта, и администрация не несет ответственности за их содержание. Просьба не заливать файлы, защищенные авторскими правами, а также файлы нелегального содержания!