[ Сегодня идет свободное скачивание без начисления Download ]


Статистика раздачи
Нет
 
   
 
Top  
 
 
Год выпуска: 2013
Страна: Россия
Жанр: мультсериал
Продолжительность: ~ 6.30 - 10.30 минут - серия
Перевод: не требуется
Субтитры: нет
Режиссеры: Олег Мусин, Анна Борисова, Катерина Савчук, Алексей Минченок, Наталья Мирзоян, Александра Аверьянова, Константин Бирюков, Илья Максимов
В ролях (озвучка): Владимир Постников, Вадим Бочанов, Ксения Бржезовская, Светлана Письмиченко, Сергей Мардарь, Михаил Черняк, Сауле Искакова
Описание: Жизнерадостные круглые друзья вернулись на наши экраны и всех удивили. Ведь в новом сезоне наши любимые Смешарики округлились окончательно — теперь они трехмерные! У меня двумерные :)-
Исходник: 4 x DVD5 R5
Качество: DVDRip-AVC
Формат: MKV
Видео кодек : H264
Аудио кодек: АС3
Видео: 720x576@1024x576 (16:9), 25.000 fps, H264 ~ 2006 kbps avg, 0.193 bit/pixel
Аудио: 48 kHz, АС3 2 ch, 192 kbps, русский

Наименование серий

01. Власть моды
02. Ничейный выигрыш
03. Пощады не будет
04. Непрощенный
05. Статистика
06. Наказуха
07. Я завтрашний, я вчерашний
08. Искусство кройки и житья
09. Степанида
10. Кибернюша
11. Машина времени
12. Одно из двух
13. Пандянка
14. Дикарь
15. Упаковщики
16. Вместо меня
17. Массы и расстояния
18. Кто смеется последним
19. Шуша
20. Иллюзионист
21. Кто подставил кролика Кроша?
22. Только никому не говори
23. Последняя ошибка Пина

MediaInfo

Общее
Полное имя : Smeshariki.Novie.priklyucheniya.2013.O.DVDRip-AVC_[Youtracker]_by_avproh?1.mkv
Формат : Matroska
Версия формата : Version 4 / Version 2
Размер файла : 102 Мбайт
Продолжительность : 6 м. 30 с.
Общий поток : 2199 Кбит/сек
Дата кодирования : UTC 2013-08-04 23:26:30
Программа кодирования : mkvmerge v6.1.0 ('Old Devil') built on Mar 2 2013 14:32:37
Библиотека кодирования : libebml v1.3.0 + libmatroska v1.4.0
Видео
Идентификатор : 1
Формат : AVC
Формат/Информация : Advanced Video Codec
Профиль формата : High@L4.1
Параметр CABAC формата : Да
Параметр ReFrames формата : 11 кадров
Идентификатор кодека : V_MPEG4/ISO/AVC
Продолжительность : 6 м. 30 с.
Битрейт : 2006 Кбит/сек
Ширина : 720 пикселей
Высота : 576 пикселей
Соотношение сторон : 16:9
Режим частоты кадров : Постоянный
Частота кадров : 25,000 кадров/сек
Стандарт вещания : PAL
Цветовое пространство : YUV
Субдискретизация насыщенности : 4:2:0
Битовая глубина : 8 бит
Тип развёртки : Прогрессивная
Бит/(Пиксели*Кадры) : 0.193
Размер потока : 91,3 Мбайт (89%)
Библиотека кодирования : x264 core 130 r2273 b3065e6
Настройки программы : cabac=1 / ref=11 / deblock=1:-2:-1 / analyse=0x3:0x113 / me=umh / subme=9 / psy=1 / psy_rd=1.00:0.20 / mixed_ref=1 / me_range=32 / chroma_me=1 / trellis=1 / 8x8dct=1 / cqm=0 / deadzone=21,11 / fast_pskip=0 / chroma_qp_offset=-3 / threads=9 / lookahead_threads=1 / sliced_threads=0 / nr=0 / decimate=0 / interlaced=0 / bluray_compat=0 / constrained_intra=0 / bframes=8 / b_pyramid=2 / b_adapt=2 / b_bias=0 / direct=3 / weightb=1 / open_gop=0 / weightp=2 / keyint=250 / keyint_min=25 / scenecut=40 / intra_refresh=0 / rc_lookahead=60 / rc=2pass / mbtree=1 / bitrate=2006 / ratetol=1.0 / qcomp=0.60 / qpmin=0 / qpmax=69 / qpstep=4 / cplxblur=20.0 / qblur=0.5 / ip_ratio=1.40 / aq=1:1.00
Язык : Russian
Default : Да
Forced : Нет
Аудио
Идентификатор : 2
Формат : AC-3
Формат/Информация : Audio Coding 3
Расширение режима : CM (complete main)
Параметр Endianness формата : Big
Идентификатор кодека : A_AC3
Продолжительность : 6 м. 30 с.
Вид битрейта : Постоянный
Битрейт : 192 Кбит/сек
Каналы : 2 канала
Расположение каналов : Front: L R
Частота : 48,0 КГц
Битовая глубина : 16 бит
Метод сжатия : С потерями
Размер потока : 8,93 Мбайт (9%)
Язык : Russian
Default : Да
Forced : Нет

Скриншоты

[Цитировать]

Топик был перенесен из форума Смешарики в форум Зарубежные мультфильмы
Prizr@k



Показать сообщения:    

Текущее время: 02-Дек 22:56

Часовой пояс: UTC + 3


Вы не можете начинать темы
Вы не можете отвечать на сообщения
Вы не можете редактировать свои сообщения
Вы не можете удалять свои сообщения
Вы не можете голосовать в опросах
Вы не можете прикреплять файлы к сообщениям
Вы не можете скачивать файлы

!ВНИМАНИЕ!
Сайт не предоставляет электронные версии произведений, а занимается лишь коллекционированием и каталогизацией ссылок, присылаемых и публикуемых на форуме нашими читателями. Если вы являетесь правообладателем какого-либо представленного материала и не желаете, чтобы ссылка на него находилась в нашем каталоге, свяжитесь с нами, и мы незамедлительно удалим ее. Файлы для обмена на трекере предоставлены пользователями сайта, и администрация не несет ответственности за их содержание. Просьба не заливать файлы, защищенные авторскими правами, а также файлы нелегального содержания!