[ Сегодня идет свободное скачивание без начисления Download ]


Статистика раздачи
Нет
 
   
 
Top  
 
 
Информация о фильме
Название: Печать царя Соломона
Оригинальное название: Печать царя Соломона
Год выхода: 2013
Жанр: мультфильм, приключения
Режиссер: Владлен Барбэ
В ролях: Дмитрий Дюжев, Эдуард Радзюкевич, Владимир Долинский, Александр Головин
О фильме: Много веков назад, во времена своего правления, царь Соломон прогневался на могущественного джинна Юсуфа и с помощью колдовства заковал его в глиняный сосуд, скрепив заклятье своим магическим перстнем.
Прошли годы, сменились эпохи, и джинн оказывается на свободе в современной Москве. По невероятному стечению обстоятельств из плена его спасли юный Гекльберри Финн со своим другом, беглым рабом Джимом, силой магии также переместившиеся из Америки XIX века на улицы современного мегаполиса.
Но на этом приключения героев не заканчиваются. Сила перстня столь велика, что сквозь пространство и время Юсуфа преследует древний демон Кишкаш, продолжающий исполнять волю Соломона. Однако, истинная его цель заключается в стремлении обрести могущественный артефакт царя, чтобы погрузить мир в вечную тьму и хаос.
Время решающей битвы стремительно приближается…


Выпущено: Россия / Animation Studio RIM
Продолжительность: 01:15:22
Озвучивание: Оригинальное
Файл
Формат: AVI (XviD)
Качество: WEB-DLRip
Видео кодек: XviD
Аудио кодек:AC3
Видео: 720x384 (1.88:1), 25 fps, XviD build 50 ~2203 kbps avg, 0.32 bit/pixel
Аудио:48 kHz, AC3 Dolby Digital, 3/2 (L,C,R,l,r) + LFE ch, ~384 kbps

Скриншоты

Mediainfo

Общее
Полное имя : DPechat.carja.Solomona.2012.O.WEBDLRip.1400MB.avi
Формат : AVI
Формат/Информация : Audio Video Interleave
Размер файла : 1,37 Гбайт
Продолжительность : 1 ч. 15 м.
Общий поток : 2598 Кбит/сек
Программа кодирования : VirtualDubMod 1.5.10.3 | www.virtualdub-fr.org || (build 2550/release)
Библиотека кодирования : VirtualDubMod build 2550/release
Видео
Идентификатор : 0
Формат : MPEG-4 Visual
Профиль формата : Advanced Simple@L5
Параметр BVOP формата : 2
Параметр QPel формата : Нет
Параметр GMC формата : Без точки перехода
Параметр матрицы формата : Default (MPEG)
Идентификатор кодека : XVID
Идентификатор кодека/Подсказка : XviD
Продолжительность : 1 ч. 15 м.
Битрейт : 2204 Кбит/сек
Ширина : 720 пикселей
Высота : 384 пикселя
Соотношение сторон : 1,85:1
Частота кадров : 25,000 кадров/сек
Цветовое пространство : YUV
Субдискретизация насыщенности : 4:2:0
Битовая глубина : 8 бит
Тип развёртки : Прогрессивная
Метод сжатия : С потерями
Бит/(Пиксели*Кадры) : 0.319
Размер потока : 1,16 Гбайт (85%)
Библиотека кодирования : XviD 1.2.1 (UTC 2008-12-04)
Аудио
Идентификатор : 1
Формат : AC-3
Формат/Информация : Audio Coding 3
Расширение режима : CM (complete main)
Параметр Endianness формата : Big
Идентификатор кодека : 2000
Продолжительность : 1 ч. 15 м.
Вид битрейта : Постоянный
Битрейт : 384 Кбит/сек
Каналы : 6 каналов
Расположение каналов : Front: L C R, Side: L R, LFE
Частота : 48,0 КГц
Битовая глубина : 16 бит
Метод сжатия : С потерями
Размер потока : 207 Мбайт (15%)
Выравнивание : Разделение по промежуткам
Продолжительность промежутка : 40 мс. (1,00 видеокадр)
Время предзагрузки промежутка : 500 мс.

[Цитировать]



Показать сообщения:    

Текущее время: 09-Дек 03:01

Часовой пояс: UTC + 3


Вы не можете начинать темы
Вы не можете отвечать на сообщения
Вы не можете редактировать свои сообщения
Вы не можете удалять свои сообщения
Вы не можете голосовать в опросах
Вы не можете прикреплять файлы к сообщениям
Вы не можете скачивать файлы

!ВНИМАНИЕ!
Сайт не предоставляет электронные версии произведений, а занимается лишь коллекционированием и каталогизацией ссылок, присылаемых и публикуемых на форуме нашими читателями. Если вы являетесь правообладателем какого-либо представленного материала и не желаете, чтобы ссылка на него находилась в нашем каталоге, свяжитесь с нами, и мы незамедлительно удалим ее. Файлы для обмена на трекере предоставлены пользователями сайта, и администрация не несет ответственности за их содержание. Просьба не заливать файлы, защищенные авторскими правами, а также файлы нелегального содержания!