[ Сегодня идет свободное скачивание без начисления Download ]


Статистика раздачи
Нет
 
   
 
Top  
 
 
Деточки
Страна: Россия, Беларусь
Жанр: социальная драма, криминальный
Год выпуска: 2012
Продолжительность: 01:40:59-Режиссёр: Дмитрий Астрахан
В ролях: Владимир Кабалин, Егор Котов, Диана Запрудская, Миша Каранецкий, Алексей Кузьмин, Максим Райчёнок, Макс Салунди, Андрей Душечкин, Виктор Васильев, Ирина Корниевич, Виталий Новиков, Александр Горошко, Матвей Ядров, Юрий Павлов, Артем Демидко, Алёна Олейникова, Яна Молодова, Илья Ковшер, Саша Толстыко, Валентина Митина, Наталья Капитонова, Артем Бородич, Александр Пашкевич, Олег Ткачев, Елена Андреева, Андрей Ровба, воспитанники детдома № 5 Минска-Описание: Россия, наши дни. В небольшом городке начинают происходить убийства. Жертвы — наркоторговцы, продажные чиновники, подкупленные судьи, депутаты-педофилы. Кто-то явно решил очистить город от зла. Кто же эти "народные мстители"?..-Доп. информация: Премьера (РФ) 3 апреля 2013.

-Качество видео: WEB-DLRip
Формат видео: AVI
Видеокодек: XviD
Аудиокодек: АС3
Видео: 720x304 (2.37:1), 25 fps, XviD build 50, 1736 kbps avg, 0.32 bit/pixel
Аудио: 44.1 kHz, AC3 Dolby Digital, 2/0 (L,R) ch, 192 kbps

MediaInfo

Полное имя : E:\Деточки.2012.WEBRip.avi
Формат : AVI
Формат/Информация : Audio Video Interleave
Размер файла : 1,37 Гбайт
Продолжительность : 1 ч. 40 м.
Общий поток : 1937 Кбит/сек
Программа кодирования : VirtualDubMod 1.5.10.2 (build 2540/release)
Библиотека кодирования : VirtualDubMod build 2540/release
Видео
Идентификатор : 0
Формат : MPEG-4 Visual
Профиль формата : Advanced [email protected]
Параметр BVOP формата : 2
Параметр QPel формата : Нет
Параметр GMC формата : Без точки перехода
Параметр матрицы формата : Выборочная
Идентификатор кодека : XVID
Идентификатор кодека/Подсказка : XviD
Продолжительность : 1 ч. 40 м.
Битрейт : 1736 Кбит/сек
Ширина : 720 пикселей
Высота : 304 пикселя
Соотношение сторон : 2,35:1
Частота кадров : 25,000 кадров/сек
Цветовое пространство : YUV
Субдискретизация насыщенности : 4:2:0
Битовая глубина : 8 бит
Тип развёртки : Прогрессивная
Метод сжатия : С потерями
Бит/(Пиксели*Кадры) : 0.317
Размер потока : 1,22 Гбайт (90%)
Библиотека кодирования : XviD 1.2.1 (UTC 2008-12-04)
Аудио
Идентификатор : 1
Формат : AC-3
Формат/Информация : Audio Coding 3
Расширение режима : CM (complete main)
Параметр Endianness формата : Big
Идентификатор кодека : 2000
Продолжительность : 1 ч. 40 м.
Вид битрейта : Постоянный
Битрейт : 192 Кбит/сек
Каналы : 2 канала
Расположение каналов : Front: L R
Частота : 44,1 КГц
Битовая глубина : 16 бит
Метод сжатия : С потерями
Размер потока : 139 Мбайт (10%)
Выравнивание : Разделение по промежуткам
Продолжительность промежутка : 40 мс. (1,00 видеокадр)
Время предзагрузки промежутка : 500 мс.

Скриншоты



Последний раз редактировалось: SAndreasS (2013-08-05 23:29), всего редактировалось 1 раз

[Цитировать]

Смотрим. Делимся впечатлениями.

[Цитировать]



Показать сообщения:    

Текущее время: 04-Дек 07:04

Часовой пояс: UTC + 3


Вы не можете начинать темы
Вы не можете отвечать на сообщения
Вы не можете редактировать свои сообщения
Вы не можете удалять свои сообщения
Вы не можете голосовать в опросах
Вы не можете прикреплять файлы к сообщениям
Вы не можете скачивать файлы

!ВНИМАНИЕ!
Сайт не предоставляет электронные версии произведений, а занимается лишь коллекционированием и каталогизацией ссылок, присылаемых и публикуемых на форуме нашими читателями. Если вы являетесь правообладателем какого-либо представленного материала и не желаете, чтобы ссылка на него находилась в нашем каталоге, свяжитесь с нами, и мы незамедлительно удалим ее. Файлы для обмена на трекере предоставлены пользователями сайта, и администрация не несет ответственности за их содержание. Просьба не заливать файлы, защищенные авторскими правами, а также файлы нелегального содержания!