[ Today is free to download without increasing Download ]

DL-List and Torrent activity
Большой переполох в маленьком Китае / Big Trouble in Little China«A Mystical, Action, Adventure, Comedy, Kung Fu, Monster, Ghost Story!»
Год выпуска: 1986
Страна: США
Производство: 20th Century Fox Film Corporation
Жанр: фэнтези, боевик, комедия, приключения
Режиссер: Джон Карпентер / John Carpenter
В ролях: Курт Расселл, Ким Кэттролл, Деннис Дан, Джеймс Хонг, Виктор Уонг, Кэйт Бертон
Перевод: Профессиональный (многоголосый, закадровый)
Субтитры: Отсутствуют
Описание: Водителю грузовика приходиться углубиться в недра китайского квартала Сан-Франциско после того, как некий могущественный китаец похитил девушку его друга только потому, что у нее зеленые глаза.

Релиз от:
Автор рипа: aVitaliy
Качество: BDRip [Исходник BD Remux]
Продолжительность: 01:39:47
Формат: AVI
Видео кодек: XviD
Аудио кодек: AC3
Видео: 720x304 (2.37:1), 23.976 fps, XviD MPEG-4 ~1629 kbps avg, 0.31 bit/pixel
Аудио: 48 kHz, AC3 Dolby Digital, 3/2 (L,C,R,l,r) + LFE ch, ~448 kbps

Media Info

Complete name                  : D:\фильмы\Bolshoj.perepoloh.v.malenjkom.Kitaje.1986.BDRip.avi
Format                         : AVI
Format/Info                    : Audio Video Interleave
File size                      : 1.46 GiB
Duration                       : 1h 39mn
Overall bit rate               : 2 087 Kbps
Movie name                     : Большой переполох в маленьком Китае / Big Trouble In Little China (1986)
Director                       : aVitaliy (BD Remux)
Writing application            : VirtualDubMod (build 2540/release)
Copyright                      : HQ-ViDEO (www.hq-video.ru)
Comment                        : 31.05.2009
ID                             : 0
Format                         : MPEG-4 Visual
Format profile                 : Advanced Simple@L5
Format settings, BVOP          : 2
Format settings, QPel          : No
Format settings, GMC           : No warppoints
Format settings, Matrix        : Default (MPEG)
Muxing mode                    : Packed bitstream
Codec ID                       : XVID
Codec ID/Hint                  : XviD
Duration                       : 1h 39mn
Bit rate                       : 1 630 Kbps
Width                          : 720 pixels
Height                         : 304 pixels
Display aspect ratio           : 2.35:1
Frame rate                     : 23.976 fps
Color space                    : YUV
Chroma subsampling             : 4:2:0
Bit depth                      : 8 bits
Scan type                      : Progressive
Compression mode               : Lossy
Bits/(Pixel*Frame)             : 0.311
Stream size                    : 1.14 GiB (78%)
Writing library                : XviD 1.2.1 (UTC 2008-12-04)
ID                             : 1
Format                         : AC-3
Format/Info                    : Audio Coding 3
Mode extension                 : CM (complete main)
Codec ID                       : 2000
Duration                       : 1h 39mn
Bit rate mode                  : Constant
Bit rate                       : 448 Kbps
Channel(s)                     : 6 channels
Channel positions              : Front: L C R, Side: L R, LFE
Sampling rate                  : 48.0 KHz
Bit depth                      : 16 bits
Compression mode               : Lossy
Stream size                    : 320 MiB (21%)
Alignment                      : Split accross interleaves
Interleave, duration           : 42 ms (1.00 video frame)
Interleave, preload duration   : 500 ms


Премьера (мир): 2 июля 1986
Релиз на DVD: 27 ноября 2008, «Двадцатый Век Фокс СНГ»
Релиз на Blu-Ray: 27 августа 2009, «Двадцатый Век Фокс СНГ»



Display posts:    

Current time is: 28-Oct 20:49

All times are UTC + 3

You cannot post new topics in this forum
You cannot reply to topics in this forum
You cannot edit your posts in this forum
You cannot delete your posts in this forum
You cannot vote in polls in this forum
You cannot attach files in this forum
You cannot download files in this forum

The site does not give electronic versions of products, and is engaged only in a collecting and cataloguing of the references sent and published at a forum by our readers. If you are the legal owner of any submitted material and do not wish that the reference to it was in our catalogue, contact us and we shall immediately remove her. Files for an exchange on tracker are given by users of a site, and the administration does not bear the responsibility for their maintenance. The request to not fill in the files protected by copyrights, and also files of the illegal maintenance!