[ Сегодня идет свободное скачивание без начисления Download ]


Статистика раздачи
Нет
 
   
 
Top  
 
 

Информация о фильме
Название: Скотт Пилигрим против всех
Оригинальное название: Scott Pilgrim vs. the World
Год выхода: 2010
Жанр: фэнтези, боевик, мелодрама, комедия
Режиссер: Эдгар Райт
В ролях: Майкл Сера, Мэри Элизабет Уинстэд, Киран Калкин, Анна Кендрик, Крис Эванс, Джонни Симмонс, Эллен Вонг, Брэндон Рут, Джейсон Шварцман, Элисон Пилл
О фильме: Скотт Пилигрим нашел девушку своей мечты. Но на его пути стоит более сложная задача: чтобы встречаться с ней, Скотту придется победить ее семерых бывших и очень злых парней.

Выпущено: Universal Pictures
Продолжительность: 01:52:19
Перевод: Дублированный (лицензия)
Файл
Кодек: x264
Качество: BDRip 1080p (источник: Blu-ray Disc) | сэмпл
Видео: 1920x1040 (16:9), 23.976 fps, 9000 kbps
Аудио #1: AC-3, 6 ch, 448 kbps (Rus)
Аудио #2: AC-3, 6 ch, 448 kbps (Eng)
Субтитры: Русские (форс,полные), Английские

Скриншоты

MI

Общее
Уникальный идентификатор : 178647354133981129246812078293149525499 (0x86663A97F5A42BDE9B91CDD0B6B3A5FB)
Полное имя : Scott.Pilgrim.vs.the.World.2010.BDRip.1080p.Rus.Eng.mkv
Формат : Matroska
Версия формата : Version 2
Размер файла : 7,76 Гбайт
Продолжительность : 1 ч. 52 м.
Общий поток : 9894 Кбит/сек
Название фильма : Скотт Пилигрим против всех / Scott Pilgrim vs. the World (2010)
Дата кодирования : UTC 2013-08-22 21:15:42
Программа кодирования : mkvmerge v5.8.0 ('No Sleep / Pillow') built on Sep 2 2012 15:37:04
Библиотека кодирования : libebml v1.2.3 + libmatroska v1.3.0
Видео
Идентификатор : 1
Формат : AVC
Формат/Информация : Advanced Video Codec
Профиль формата : High@L4.1
Параметр CABAC формата : Да
Параметр ReFrames формата : 4 кадра
Идентификатор кодека : V_MPEG4/ISO/AVC
Продолжительность : 1 ч. 52 м.
Битрейт : 9000 Кбит/сек
Ширина : 1920 пикселей
Высота : 1040 пикселей
Соотношение сторон : 16:9
Частота кадров : 23,976 кадра/сек
Цветовое пространство : YUV
Субдискретизация насыщенности : 4:2:0
Битовая глубина : 8 бит
Тип развёртки : Прогрессивная
Бит/(Пиксели*Кадры) : 0.188
Размер потока : 6,90 Гбайт (89%)
Заголовок : Release by AlexKa
Библиотека кодирования : x264 core 135 r2345 f0c1c53
Настройки программы : cabac=1 / ref=4 / deblock=1:-3:-3 / analyse=0x3:0x133 / me=umh / subme=11 / psy=1 / psy_rd=1.00:0.10 / mixed_ref=1 / me_range=32 / chroma_me=1 / trellis=2 / 8x8dct=1 / cqm=0 / deadzone=21,11 / fast_pskip=0 / chroma_qp_offset=-3 / threads=12 / lookahead_threads=1 / sliced_threads=0 / nr=0 / decimate=0 / interlaced=0 / bluray_compat=0 / constrained_intra=0 / bframes=6 / b_pyramid=2 / b_adapt=2 / b_bias=0 / direct=3 / weightb=1 / open_gop=0 / weightp=2 / keyint=240 / keyint_min=23 / scenecut=40 / intra_refresh=0 / rc_lookahead=60 / rc=2pass / mbtree=0 / bitrate=9000 / ratetol=1.0 / qcomp=0.60 / qpmin=0 / qpmax=69 / qpstep=4 / cplxblur=20.0 / qblur=0.5 / vbv_maxrate=50000 / vbv_bufsize=62500 / nal_hrd=none / ip_ratio=1.40 / pb_ratio=1.30 / aq=1:0.90
Язык : English
Аудио #1
Идентификатор : 2
Формат : AC-3
Формат/Информация : Audio Coding 3
Расширение режима : CM (complete main)
Идентификатор кодека : A_AC3
Продолжительность : 1 ч. 52 м.
Вид битрейта : Постоянный
Битрейт : 448 Кбит/сек
Каналы : 6 каналов
Расположение каналов : Front: L C R, Side: L R, LFE
Частота : 48,0 КГц
Битовая глубина : 16 бит
Метод сжатия : С потерями
Размер потока : 360 Мбайт (5%)
Заголовок : Rus
Язык : Russian
Аудио #2
Идентификатор : 3
Формат : AC-3
Формат/Информация : Audio Coding 3
Расширение режима : CM (complete main)
Идентификатор кодека : A_AC3
Продолжительность : 1 ч. 52 м.
Вид битрейта : Постоянный
Битрейт : 448 Кбит/сек
Каналы : 6 каналов
Расположение каналов : Front: L C R, Side: L R, LFE
Частота : 48,0 КГц
Битовая глубина : 16 бит
Метод сжатия : С потерями
Размер потока : 360 Мбайт (5%)
Заголовок : Eng
Язык : English
Текст #1
Идентификатор : 4
Формат : UTF-8
Идентификатор кодека : S_TEXT/UTF8
Идентификатор кодека/Информация : UTF-8 Plain Text
Заголовок : Rus forced
Язык : Russian
Текст #2
Идентификатор : 5
Формат : UTF-8
Идентификатор кодека : S_TEXT/UTF8
Идентификатор кодека/Информация : UTF-8 Plain Text
Заголовок : Rus
Язык : Russian
Текст #3
Идентификатор : 6
Формат : UTF-8
Идентификатор кодека : S_TEXT/UTF8
Идентификатор кодека/Информация : UTF-8 Plain Text
Заголовок : Eng
Язык : English
Меню
00:00:00.000 : :Chapter 01
00:07:24.318 : :Chapter 02
00:13:14.668 : :Chapter 03
00:20:01.241 : :Chapter 04
00:26:01.142 : :Chapter 05
00:30:50.223 : :Chapter 06
00:38:52.747 : :Chapter 07
00:45:25.681 : :Chapter 08
00:50:18.515 : :Chapter 09
00:53:55.065 : :Chapter 10
00:59:15.843 : :Chapter 11
01:03:10.328 : :Chapter 12
01:08:05.206 : :Chapter 13
01:14:23.750 : :Chapter 14
01:20:19.022 : :Chapter 15
01:27:47.512 : :Chapter 16
01:30:43.771 : :Chapter 17
01:39:14.198 : :Chapter 18
01:40:49.793 : :Chapter 19
01:48:34.466 : :Chapter 20

x264

x264 [info]: frame I:1612 Avg QP:16.22 size:225169
x264 [info]: frame P:38462 Avg QP:19.20 size: 82928
x264 [info]: frame B:121496 Avg QP:20.89 size: 33130

[Цитировать]

Сам фильм, конечно, бредовый! Но юмор есть. Эта картина на любителя, или для тех кто хочет посмотреть что–нибудь необычное.

[Цитировать]



Показать сообщения:    

Текущее время: 07-Дек 17:21

Часовой пояс: UTC + 3


Вы не можете начинать темы
Вы не можете отвечать на сообщения
Вы не можете редактировать свои сообщения
Вы не можете удалять свои сообщения
Вы не можете голосовать в опросах
Вы не можете прикреплять файлы к сообщениям
Вы не можете скачивать файлы

!ВНИМАНИЕ!
Сайт не предоставляет электронные версии произведений, а занимается лишь коллекционированием и каталогизацией ссылок, присылаемых и публикуемых на форуме нашими читателями. Если вы являетесь правообладателем какого-либо представленного материала и не желаете, чтобы ссылка на него находилась в нашем каталоге, свяжитесь с нами, и мы незамедлительно удалим ее. Файлы для обмена на трекере предоставлены пользователями сайта, и администрация не несет ответственности за их содержание. Просьба не заливать файлы, защищенные авторскими правами, а также файлы нелегального содержания!