[ Сегодня идет свободное скачивание без начисления Download ]


Статистика раздачи
Нет
 
   
 
Top  
 
 

Информация о фильме
Название: Пипец
Оригинальное название: Kick-Ass
Год выхода: 2010
Жанр: боевик, триллер, комедия, криминал
Режиссер: Мэттью Вон
В ролях: Аарон Джонсон, Хлоя Грейс Морец, Николас Кейдж, Марк Стронг, Кристофер Минц-Плассе, Линдси Фонсека, Декстер Флетчер, Майкл Рисполи, Элизабет МакГоверн, Ксандер Беркли
О фильме:
Главный герой - школьник Дэйв Лизевски, который, вырядившись в костюм супергероя, пытается бороться с преступниками, хотя не обладает для этого никакими способностями. Параллельно два персонажа - 11-летняя девочка, которая крошит гангстеров мечом и сынок гангстера, ведущий собственное расследование, пытаются выяснить личность Дэйва.

Выпущено: США, Великобритания
Студия: Lionsgate, Universal Pictures
Продолжительность: 01:57:44
Перевод: Дублированный + Профессиональный одноголосый закадровый + Оригинал
Файл
Кодек: x264
Качество: BDRip 1080p | семпл
Видео: 1920x800 (2,40:1), 23.976 fps, 8322 kbps
Аудио #1: AC-3, 6 ch, 448 kbps (Rus) R5 (цензура)
Аудио #2: AC-3, 6 ch, 448 kbps (Rus) Дмитрий «Гоблин» Пучков (нецензурный)
Аудио #3: AC-3, 6 ch, 448 kbps (Eng) Оригинал
Субтитры: Русские, Английские

Скриншоты

MI

Общее
Уникальный идентификатор : 205260392048446406681106064163311605131 (0x9A6BB6AAD674827ABE74A296C25A558B)
Полное имя : E:Kick.Ass.2010.BDRip.1080p.Rus.Eng.mkv
Формат : Matroska
Версия формата : Version 4 / Version 2
Размер файла : 7,95 Гбайт
Продолжительность : 1 ч. 57 м.
Общий поток : 9664 Кбит/сек
Название фильма : Пипец / Kick-Ass (2010)
Дата кодирования : UTC 2013-08-19 10:35:37
Программа кодирования : mkvmerge v6.3.0 ('You can't stop me!') built on Jun 28 2013 20:09:41
Библиотека кодирования : libebml v1.3.0 + libmatroska v1.4.0
Видео
Идентификатор : 1
Формат : AVC
Формат/Информация : Advanced Video Codec
Профиль формата : High@L4.1
Параметр CABAC формата : Да
Параметр ReFrames формата : 5 кадров
Идентификатор кодека : V_MPEG4/ISO/AVC
Продолжительность : 1 ч. 57 м.
Битрейт : 8322 Кбит/сек
Ширина : 1920 пикселей
Высота : 800 пикселей
Соотношение сторон : 2,40:1
Режим частоты кадров : Постоянный
Частота кадров : 23,976 кадра/сек
Цветовое пространство : YUV
Субдискретизация насыщенности : 4:2:0
Битовая глубина : 8 бит
Тип развёртки : Прогрессивная
Бит/(Пиксели*Кадры) : 0.226
Размер потока : 6,68 Гбайт (84%)
Заголовок : Release by N1NT3NDO
Библиотека кодирования : x264 core 135 r2345 f0c1c53
Настройки программы : cabac=1 / ref=5 / deblock=1:-3:-3 / analyse=0x3:0x133 / me=umh / subme=11 / psy=1 / psy_rd=1.00:0.00 / mixed_ref=1 / me_range=32 / chroma_me=1 / trellis=2 / 8x8dct=1 / cqm=0 / deadzone=21,11 / fast_pskip=0 / chroma_qp_offset=-2 / threads=12 / lookahead_threads=1 / sliced_threads=0 / nr=0 / decimate=0 / interlaced=0 / bluray_compat=0 / constrained_intra=0 / bframes=6 / b_pyramid=2 / b_adapt=2 / b_bias=0 / direct=3 / weightb=1 / open_gop=0 / weightp=2 / keyint=240 / keyint_min=23 / scenecut=40 / intra_refresh=0 / rc=2pass / mbtree=0 / bitrate=8322 / ratetol=1.0 / qcomp=0.60 / qpmin=0 / qpmax=69 / qpstep=4 / cplxblur=20.0 / qblur=0.5 / ip_ratio=1.40 / pb_ratio=1.30 / aq=1:0.70
Язык : English
Default : Да
Forced : Нет
Аудио #1
Идентификатор : 2
Формат : AC-3
Формат/Информация : Audio Coding 3
Расширение режима : CM (complete main)
Параметр Endianness формата : Big
Идентификатор кодека : A_AC3
Продолжительность : 1 ч. 57 м.
Вид битрейта : Постоянный
Битрейт : 448 Кбит/сек
Каналы : 6 каналов
Расположение каналов : Front: L C R, Side: L R, LFE
Частота : 48,0 КГц
Битовая глубина : 16 бит
Метод сжатия : С потерями
Размер потока : 377 Мбайт (5%)
Заголовок : (Rus) R5
Язык : Russian
Default : Да
Forced : Нет
Аудио #2
Идентификатор : 3
Формат : AC-3
Формат/Информация : Audio Coding 3
Расширение режима : CM (complete main)
Параметр Endianness формата : Big
Идентификатор кодека : A_AC3
Продолжительность : 1 ч. 57 м.
Вид битрейта : Постоянный
Битрейт : 448 Кбит/сек
Каналы : 6 каналов
Расположение каналов : Front: L C R, Side: L R, LFE
Частота : 48,0 КГц
Битовая глубина : 16 бит
Метод сжатия : С потерями
Размер потока : 377 Мбайт (5%)
Заголовок : (Rus) Дмитрий «Гоблин» Пучков
Язык : Russian
Default : Нет
Forced : Нет
Аудио #3
Идентификатор : 4
Формат : AC-3
Формат/Информация : Audio Coding 3
Расширение режима : CM (complete main)
Параметр Endianness формата : Big
Идентификатор кодека : A_AC3
Продолжительность : 1 ч. 57 м.
Вид битрейта : Постоянный
Битрейт : 448 Кбит/сек
Каналы : 6 каналов
Расположение каналов : Front: L C R, Side: L R, LFE
Частота : 48,0 КГц
Битовая глубина : 16 бит
Метод сжатия : С потерями
Размер потока : 377 Мбайт (5%)
Заголовок : Eng
Язык : English
Default : Нет
Forced : Нет
Текст #1
Идентификатор : 5
Формат : UTF-8
Идентификатор кодека : S_TEXT/UTF8
Идентификатор кодека/Информация : UTF-8 Plain Text
Заголовок : Rus
Язык : Russian
Default : Нет
Forced : Нет
Текст #2
Идентификатор : 6
Формат : UTF-8
Идентификатор кодека : S_TEXT/UTF8
Идентификатор кодека/Информация : UTF-8 Plain Text
Заголовок : Eng
Язык : English
Default : Нет
Forced : Нет
Меню
00:00:00.000 : :1. A Regular Guy
00:05:33.333 : :2. Be Honest
00:15:55.621 : :3. Time To Engage
00:21:10.060 : :4. Pop Quiz
00:28:17.696 : :5. Here Kitty
00:47:52.953 : :6. Daddy and Marcus
00:52:34.818 : :7. Red Mist
01:03:16.835 : :8. Watch This
01:10:16.879 : :9. Worth Living For
01:16:25.122 : :10. Need To Meet
01:25:17.279 : :11. Hit Girl
01:30:26.046 : :12. Job To Finish
01:38:17.350 : :13. Under Control
01:43:57.982 : :14. Playtime is Over
01:47:05.419 : :15. Time To Go Home
01:49:47.122 : :16. Opened A Door

x264

x264 [info]: frame I:1649 Avg QP:17.47 size:199977
x264 [info]: frame P:40896 Avg QP:20.34 size: 70307
x264 [info]: frame B:126842 Avg QP:22.25 size: 32637

[Цитировать]

Смотрела этот фильмец без цензуры (чего и вам желаю), это просто жесть)))), прикольный фильмец.

[Цитировать]



Показать сообщения:    

Текущее время: 11-Дек 05:19

Часовой пояс: UTC + 3


Вы не можете начинать темы
Вы не можете отвечать на сообщения
Вы не можете редактировать свои сообщения
Вы не можете удалять свои сообщения
Вы не можете голосовать в опросах
Вы не можете прикреплять файлы к сообщениям
Вы не можете скачивать файлы

!ВНИМАНИЕ!
Сайт не предоставляет электронные версии произведений, а занимается лишь коллекционированием и каталогизацией ссылок, присылаемых и публикуемых на форуме нашими читателями. Если вы являетесь правообладателем какого-либо представленного материала и не желаете, чтобы ссылка на него находилась в нашем каталоге, свяжитесь с нами, и мы незамедлительно удалим ее. Файлы для обмена на трекере предоставлены пользователями сайта, и администрация не несет ответственности за их содержание. Просьба не заливать файлы, защищенные авторскими правами, а также файлы нелегального содержания!