[ Сегодня идет свободное скачивание без начисления Download ]


Статистика раздачи
Нет
 
   
 
Top  
 
 

Название: Последнее метро
Оригинальное название: Le dernier metro
Год выпуска: 1980
Жанр: Драма, мелодрама, военный
Выпущено: Франция | Les Films du Carrosse, S?dif Productions, Soci?t? Fran?aise de Production (SFP), TF1 Films Production
Режиссер: Франсуа Трюффо
В ролях: Жерар Депардье, Катрин Денев, Жан Пуарэ, Хайнц Беннент, Андреа Ферреоль, Полетт Дюбо, Жан-Луи Ришар, Морис Риш, Сабин Одпен, Кристиан Бальтосс
О фильме: Вторая Мировая. Оккупированный Париж. Общество расколото на молчаливое большинство, невидимых партизан, открытых коллаборационистов и жертв режима, скрывающихся от нацистской расправы. К последним относится еврей Жан-Лу Коттен, театральный режиссер и муж ведущей актрисы — Марион Штайнер. С риском для себя и всего коллектива Марион решает спрятать мужа в подвале театра, откуда Жан-Лу продолжает вдохновенно, через жену, готовить новую премьеру. На Марион, тем временем, ложится одна забота за другой: тайно носить еду в подвал (что в условиях тотального доносительства превращается в целое искусство); распространять слухи, что её муж сбежал из города; аккуратно сдерживать натиск влиятельного немецкого ухажёра… Вдобавок Марион увлекается коллегой — актёром Бернаром…
Качество: BDRip 720p
Размер: 4.62 ГБ
Продолжительность: 02:12:08
Видео: MPEG-4 AVC, 4259 Kбит/с, 1204x720
Аудио: русский, 48 kHz, AC3, 2 ch, 192 kbps avg, Кармен Видео [Профессиональный многоголосый]
Внешние файлы
Аудио: французский, 48 kHz, AC3, 1 ch, 192 kbps avg, [Оригинал]
Аудио: французский, 48 kHz, AC3, 1 ch, 192 kbps avg, [комментарий]
Аудио: английский, 48 kHz, AC3, 1 ch, 192 kbps avg, [комментарий]
Субтитры: русские

Сравнение с исходником

Награды

Приз «Давид» Донателло» в Италии лучшей иностранной актрисе (Катрин Денёв).
Оскар, 1981 год
Номинации (1):
Лучший фильм на иностранном языке — «Франция»
Золотой глобус, 1981 год
Номинации (1):
Лучший иностранный фильм — «Франция»
Сезар, 1981 год
Победитель (10):
Лучший фильм
Лучший актер (Жерар Депардье)
Лучшая актриса (Катрин Денёв)
Лучший режиссер (Франсуа Трюффо)
Лучший адаптированный или оригинальный сценарий
Лучшая работа оператора
Лучший звук
Лучший монтаж
Лучший саундтрек
Лучшие декорации
Номинации (2):
Лучший актер второго плана (Хайнц Беннент)
Лучшая актриса второго плана (Андреа Ферреоль)

Из отзывов...

dima_elf
Трюффо о театре
Франсуа Трюффо, в общем-то, довольно спокойный режиссёр, он никогда (или, по крайней мере, крайне редко) скатывается к какой-то фриковатости, провокации. Так же «Последнее метро» могло быть довольно ребристым фильмом (как, например, «Гибель Богов» Висконти или «Конформист» Бертолуччи). Но, по сути, мы имеем фильм о любви, как уже было сказано, о любви к жизни, театру, между мужчиной и женщиной (хотя есть эпизод, где и между двумя женщинами).
Главные роли Катрин Денёв и Жерар Депардье сыграли прекрасно. Образ Катрин превосходен, не лишен внутреннего конфликта и полон достоинства. Депардье было немного проще. Справился он на пристойном уровне. Но, при этом, и второстепенные персонажи очень радуют глаз, все работники театра очень характерны.
Фильм действительно хорош, что ещё раз подтверждает его присутствие в списках тысяч лучших кинолент по трём мне известным версиям: «Halliwell», «Guardian», «NEW YORK TIMES». Кроме того, это одна из лучших картин о театре.
10 из 10
Кинопоиск

Лог х264

---[Information] [23.08.2013 17:13:31] avs [info]: 1204x720p 1:1 @ 24000/1001 fps (cfr)
---[Information] [23.08.2013 17:13:31] x264 [info]: using SAR=1/1
---[Information] [23.08.2013 17:13:31] x264 [info]: using cpu capabilities: MMX2 SSE2Fast SSSE3 SSE4.2
---[Information] [23.08.2013 17:13:31] x264 [info]: profile High, level 4.1
---[Information] [24.08.2013 5:17:12] x264 [info]: frame I:1041 Avg QP:20.02 size:100932
---[Information] [24.08.2013 5:17:12] x264 [info]: frame P:34288 Avg QP:22.54 size: 44699
---[Information] [24.08.2013 5:17:12] x264 [info]: frame B:154771 Avg QP:24.11 size: 16540
---[Information] [24.08.2013 5:17:12] x264 [info]: consecutive B-frames: 0.8% 0.7% 4.0% 7.8% 12.0% 55.9% 8.8% 3.4% 6.6%
---[Information] [24.08.2013 5:17:12] x264 [info]: mb I I16..4: 5.0% 89.7% 5.3%
---[Information] [24.08.2013 5:17:12] x264 [info]: mb P I16..4: 0.4% 16.3% 0.4% P16..4: 43.1% 26.9% 12.0% 0.0% 0.0% skip: 0.9%
---[Information] [24.08.2013 5:17:12] x264 [info]: mb B I16..4: 0.0% 0.7% 0.0% B16..8: 50.9% 11.8% 2.6% direct: 6.6% skip:27.4% L0:48.0% L1:48.8% BI: 3.2%
---[Information] [24.08.2013 5:17:12] x264 [info]: 8x8 transform intra:94.0% inter:68.8%
---[Information] [24.08.2013 5:17:12] x264 [info]: direct mvs spatial:98.9% temporal:1.1%
---[Information] [24.08.2013 5:17:12] x264 [info]: coded y,uvDC,uvAC intra: 96.1% 79.1% 47.5% inter: 35.8% 30.8% 5.5%
---[Information] [24.08.2013 5:17:12] x264 [info]: i16 v,h,dc,p: 29% 16% 32% 23%
---[Information] [24.08.2013 5:17:12] x264 [info]: i8 v,h,dc,ddl,ddr,vr,hd,vl,hu: 7% 7% 10% 12% 15% 14% 12% 12% 11%
---[Information] [24.08.2013 5:17:12] x264 [info]: i4 v,h,dc,ddl,ddr,vr,hd,vl,hu: 10% 16% 2% 8% 13% 15% 13% 12% 11%
---[Information] [24.08.2013 5:17:12] x264 [info]: i8c dc,h,v,p: 43% 21% 21% 14%
---[Information] [24.08.2013 5:17:12] x264 [info]: Weighted P-Frames: Y:7.0% UV:2.6%
---[Information] [24.08.2013 5:17:12] x264 [info]: ref P L0: 35.7% 10.5% 20.8% 7.7% 8.1% 5.2% 5.7% 2.7% 3.2% 0.4% 0.0%
---[Information] [24.08.2013 5:17:12] x264 [info]: ref B L0: 56.0% 16.7% 10.0% 6.0% 4.5% 4.1% 2.1% 0.7%
---[Information] [24.08.2013 5:17:12] x264 [info]: ref B L1: 89.0% 11.0%
---[Information] [24.08.2013 5:17:12] x264 [info]: kb/s:4235.30
---[Information] [24.08.2013 5:17:12] encoded 190100 frames, 4.38 fps, 4235.30 kb/s
--[Information] [24.08.2013 5:17:15] Final statistics
---[Information] [24.08.2013 5:17:15] Video Bitrate Desired: 4259 kbit/s
---[Information] [24.08.2013 5:17:15] Video Bitrate Obtained (approximate): 4236 kbit/s
--[Information] [24.08.2013 5:17:15] MediaInfo
---[Information] File: E:RipPoslednee.metro.1980.x264.BDRipPoslednee.metro.1980.x264.BDRip.720p.mkv

MediaInfo

Общее
Полное имя : E:VideoPoslednee.metro.1980.x264.BDRip.720pPoslednee.metro.1980.Commentary.eng.ac3
Формат : AC-3
Формат/Информация : Audio Coding 3
Размер файла : 181 Мбайт
Продолжительность : 2 ч. 12 м.
Режим общего битрейта : Постоянный
Общий поток : 192 Кбит/сек
Аудио
Формат : AC-3
Формат/Информация : Audio Coding 3
Расширение режима : CM (complete main)
Параметр Endianness формата : Big
Продолжительность : 2 ч. 12 м.
Вид битрейта : Постоянный
Битрейт : 192 Кбит/сек
Каналы : 1 канал
Расположение каналов : Front: C
Частота : 48,0 КГц
Битовая глубина : 16 бит
Метод сжатия : С потерями
Размер потока : 181 Мбайт (100%)
Общее
Полное имя : E:VideoPoslednee.metro.1980.x264.BDRip.720pPoslednee.metro.1980.Commentary.fre.ac3
Формат : AC-3
Формат/Информация : Audio Coding 3
Размер файла : 181 Мбайт
Продолжительность : 2 ч. 12 м.
Режим общего битрейта : Постоянный
Общий поток : 192 Кбит/сек
Аудио
Формат : AC-3
Формат/Информация : Audio Coding 3
Расширение режима : CM (complete main)
Параметр Endianness формата : Big
Продолжительность : 2 ч. 12 м.
Вид битрейта : Постоянный
Битрейт : 192 Кбит/сек
Каналы : 1 канал
Расположение каналов : Front: C
Частота : 48,0 КГц
Битовая глубина : 16 бит
Метод сжатия : С потерями
Размер потока : 181 Мбайт (100%)
Общее
Полное имя : E:VideoPoslednee.metro.1980.x264.BDRip.720pPoslednee.metro.1980.Original.fre.ac3
Формат : AC-3
Формат/Информация : Audio Coding 3
Размер файла : 181 Мбайт
Продолжительность : 2 ч. 12 м.
Режим общего битрейта : Постоянный
Общий поток : 192 Кбит/сек
Аудио
Формат : AC-3
Формат/Информация : Audio Coding 3
Расширение режима : CM (complete main)
Параметр Endianness формата : Big
Продолжительность : 2 ч. 12 м.
Вид битрейта : Постоянный
Битрейт : 192 Кбит/сек
Каналы : 1 канал
Расположение каналов : Front: C
Частота : 48,0 КГц
Битовая глубина : 16 бит
Метод сжатия : С потерями
Размер потока : 181 Мбайт (100%)
Общее
Полное имя : E:VideoPoslednee.metro.1980.x264.BDRip.720pPoslednee.metro.1980.rus.srt
Формат : SubRip
Размер файла : 211 Кбайт
Текст
Формат : SubRip
Метод сжатия : Без потерь
Общее
Уникальный идентификатор : 247565082129008720461206471077691858864 (0xBA3F4CECA16609C0806EE708EB4B1FB0)
Полное имя : E:VideoPoslednee.metro.1980.x264.BDRip.720pPoslednee.metro.1980.x264.BDRip.720p.mkv
Формат : Matroska
Версия формата : Version 4 / Version 2
Размер файла : 4,09 Гбайт
Продолжительность : 2 ч. 12 м.
Общий поток : 4429 Кбит/сек
Название фильма : Последнее метро / Le dernier metro (The Last Metro) / 1980 / BDRip -- STarankov
Дата кодирования : UTC 2013-08-25 04:09:55
Программа кодирования : mkvmerge v6.3.0 ('You can't stop me!') built on Jun 28 2013 20:09:41
Библиотека кодирования : libebml v1.3.0 + libmatroska v1.4.0
Видео
Идентификатор : 1
Формат : AVC
Формат/Информация : Advanced Video Codec
Профиль формата : High@L4.1
Параметр CABAC формата : Да
Параметр ReFrames формата : 9 кадров
Идентификатор кодека : V_MPEG4/ISO/AVC
Продолжительность : 2 ч. 12 м.
Битрейт : 4259 Кбит/сек
Ширина : 1204 пикселя
Высота : 720 пикселей
Соотношение сторон : 1,672
Режим частоты кадров : Постоянный
Частота кадров : 23,976 кадра/сек
Цветовое пространство : YUV
Субдискретизация насыщенности : 4:2:0
Битовая глубина : 8 бит
Тип развёртки : Прогрессивная
Бит/(Пиксели*Кадры) : 0.205
Размер потока : 3,83 Гбайт (94%)
Библиотека кодирования : x264 core 135 r2345 f0c1c53
Настройки программы : cabac=1 / ref=9 / deblock=1:-1:-1 / analyse=0x3:0x113 / me=umh / subme=10 / psy=1 / psy_rd=1.00:0.15 / mixed_ref=1 / me_range=24 / chroma_me=1 / trellis=2 / 8x8dct=1 / cqm=0 / deadzone=21,11 / fast_pskip=0 / chroma_qp_offset=-3 / threads=6 / lookahead_threads=1 / sliced_threads=0 / nr=0 / decimate=0 / interlaced=0 / bluray_compat=0 / constrained_intra=0 / bframes=8 / b_pyramid=2 / b_adapt=2 / b_bias=0 / direct=3 / weightb=1 / open_gop=0 / weightp=2 / keyint=230 / keyint_min=23 / scenecut=40 / intra_refresh=0 / rc_lookahead=40 / rc=2pass / mbtree=0 / bitrate=4259 / ratetol=50.0 / qcomp=0.60 / qpmin=0 / qpmax=69 / qpstep=4 / cplxblur=20.0 / qblur=0.5 / vbv_maxrate=50000 / vbv_bufsize=62500 / nal_hrd=none / ip_ratio=1.40 / pb_ratio=1.30 / aq=1:1.00
Язык : French
Default : Да
Forced : Нет
Аудио
Идентификатор : 2
Формат : AC-3
Формат/Информация : Audio Coding 3
Расширение режима : CM (complete main)
Параметр Endianness формата : Big
Идентификатор кодека : A_AC3
Продолжительность : 2 ч. 12 м.
Вид битрейта : Постоянный
Битрейт : 192 Кбит/сек
Каналы : 2 канала
Расположение каналов : Front: L R
Частота : 48,0 КГц
Битовая глубина : 16 бит
Метод сжатия : С потерями
Размер потока : 181 Мбайт (4%)
Заголовок : MVO (Кармен Видео)
Язык : Russian
Default : Да
Forced : Нет

Скриншоты


[Цитировать]



Показать сообщения:    

Текущее время: 02-Дек 21:08

Часовой пояс: UTC + 3


Вы не можете начинать темы
Вы не можете отвечать на сообщения
Вы не можете редактировать свои сообщения
Вы не можете удалять свои сообщения
Вы не можете голосовать в опросах
Вы не можете прикреплять файлы к сообщениям
Вы не можете скачивать файлы

!ВНИМАНИЕ!
Сайт не предоставляет электронные версии произведений, а занимается лишь коллекционированием и каталогизацией ссылок, присылаемых и публикуемых на форуме нашими читателями. Если вы являетесь правообладателем какого-либо представленного материала и не желаете, чтобы ссылка на него находилась в нашем каталоге, свяжитесь с нами, и мы незамедлительно удалим ее. Файлы для обмена на трекере предоставлены пользователями сайта, и администрация не несет ответственности за их содержание. Просьба не заливать файлы, защищенные авторскими правами, а также файлы нелегального содержания!